Тихая застава / Tikhaya zastava (2010) BDRip-AVC от HQ-ViDEO RipFunClub | международный торрент-трекер
Главная » Трекеримпорт
Версия для печати
Бессовестная реклама: на этой странице пока нет =)

Тихая застава / Tikhaya zastava (2010) BDRip-AVC от HQ-ViDEO

Сообщение

Тихая застава / Tikhaya zastava (2010) BDRip-AVC от HQ-ViDEO

Сообщение FireCool » 18 июн 2011, 14:58

Тихая застава / Tikhaya zastava (2010) BDRip-AVC
Релиз от HQ-ViDEO

Информация о фильме
Название: Тихая застава
Альтернативное название: Tikhaya zastava
Год выхода: 2010
Жанр: Драма, Военный
Режиссер: Сергей Маховиков
В ролях: Андрей Чадов, Сергей Селин, Игорь Савочкин, Раджаб Хусейнов, Фаридуншо Рахматуллоев, Нина Корниенко, Нино Нинидзе, Юрий Коновалов, Александр Алёшкин, Азамат Нигманов, ...

О фильме: Бой на 12-й пограничной заставе Московского погранотряда в Республике Таджикистан произошел во вторник 13 июля 1993 года. Афганские и таджикские боевики попытались прорваться на территорию этой страны. Российские военные 11 часов отражали атаки противника, 25 человек погибло. После этого наши отступили. Позднее в тот же день застава была отбита. По итогам боя шестеро пограничников были удостоены звания Героя Российской Федерации, в том числе четверо - посмертно.


[Для просмотра изображения необходимо включить JavaScript][Для просмотра изображения необходимо включить JavaScript]


Страна: Россия
Студия: Леополис
Продолжительность: 01:31:03
Перевод: Оригинал



Файл
Кодек: MKV, x264 codec
Качество: BDRip (Исходник: Blu-ray)
Видео: 912 x 388 (2.35:1), 23.976 fps, MKV, x264 ~ 2 934 kbps avg, ~ 0.34 bit/pixel
Звук #1: 48 kHz, AC3 Dolby Digital, 3/2 (L,C,R,l,r) + LFE ch, ~448.00 kbps avg
Субтитры: Нет


---[NoImage] avs [info]: 912x388p 1:1 @ 24000/1001 fps (cfr)
---[NoImage] x264 [info]: using SAR=1/1
---[NoImage] x264 [info]: using cpu capabilities: MMX2 SSE2Fast SSSE3 FastShuffle SSE4.2
---[NoImage] x264 [info]: profile High, level 4.1
---[NoImage]
---[NoImage] x264 [info]: frame I:1238Avg QP:17.93size: 73560
---[NoImage] x264 [info]: frame P:30641 Avg QP:20.68size: 22853
---[NoImage] x264 [info]: frame B:100694 Avg QP:21.67size: 12277
---[NoImage] x264 [info]: consecutive B-frames:3.9%3.1%8.8% 21.3% 16.8% 28.4%6.5%5.2%3.9%2.1%
---[NoImage] x264 [info]: mb II16..4:3.6% 72.9% 23.6%
---[NoImage] x264 [info]: mb PI16..4:1.0% 11.7%3.7%P16..4: 41.9% 22.9%7.7%1.0%0.9%skip: 9.1%
---[NoImage] x264 [info]: mb BI16..4:0.1%1.5%1.0%B16..8: 38.6% 14.8%5.4%direct:12.9%skip:25.7%L0:40.7% L1:40.2% BI:19.0%
---[NoImage] x264 [info]: 8x8 transform intra:67.3% inter:56.1%
---[NoImage] x264 [info]: direct mvsspatial:96.1% temporal:3.9%
---[NoImage] x264 [info]: coded y,uvDC,uvAC intra: 86.7% 82.4% 48.7% inter: 45.6% 36.3% 4.7%
---[NoImage] x264 [info]: i16 v,h,dc,p: 38% 19%7% 37%
---[NoImage] x264 [info]: i8 v,h,dc,ddl,ddr,vr,hd,vl,hu: 11%9%5%9% 14% 12% 14% 11% 14%
---[NoImage] x264 [info]: i4 v,h,dc,ddl,ddr,vr,hd,vl,hu: 35%5%4%7% 11% 10% 10%8% 10%
---[NoImage] x264 [info]: i8c dc,h,v,p: 39% 26% 20% 15%
---[NoImage] x264 [info]: Weighted P-Frames: Y:5.8% UV:2.6%
---[NoImage] x264 [info]: ref P L0: 43.6% 15.7% 17.1%5.9%5.1%3.5%3.3%1.9%1.9%1.7%0.3%0.0%
---[NoImage] x264 [info]: ref B L0: 70.9% 13.2%5.9%3.3%2.3%1.9%1.5%0.7%0.3%
---[NoImage] x264 [info]: ref B L1: 92.1%7.9%
---[NoImage] x264 [info]: kb/s:2933.47


General
Unique ID: 241085887351757177395215935951219301477 (0xB55F73F5512CBA9FB81652D1A3959C65)
Complete name: I:OtherTihaya.Zastava.2010.RUS.BDRip-AVC.AC3.-HQ-ViDEO.mkv
Format: Matroska
File size: 2.18 GiB
Duration: 1h 32mn
Overall bit rate: 3 383 Kbps
Movie name: Tihaya Zastava / 2011 / Release by Vaippp / HQ-ViDEO
Encoded date: UTC 2011-06-17 10:31:46
Writing application: mkvmerge v4.8.0 ('I Got The...') сборка от May 24 2011 03:12:58
Writing library: libebml v1.2.0 + libmatroska v1.1.0

Video
ID: 1
Format: AVC
Format/Info: Advanced Video Codec
Format profile: High@L4.1
Format settings, CABAC: Yes
Format settings, ReFrames: 10 frames
Codec ID: V_MPEG4/ISO/AVC
Duration: 1h 32mn
Bit rate: 2 934 Kbps
Width: 912 pixels
Height: 388 pixels
Display aspect ratio: 2.35:1
Frame rate: 23.976 fps
Color space: YUV
Chroma subsampling: 4:2:0
Bit depth: 8 bits
Scan type: Progressive
Bits/(Pixel*Frame): 0.346
Stream size: 1.85 GiB (85%)
Title: BDRip by Vaippp
Writing library: x264 core 115 r1995 c1e60b9
Encoding settings: cabac=1 / ref=10 / deblock=1:-2:-2 / analyse=0x3:0x133 / me=umh / subme=9 / psy=1 / psy_rd=1.05:0.00 / mixed_ref=1 / me_range=32 / chroma_me=1 / trellis=2 / 8x8dct=1 / cqm=0 / deadzone=21,11 / fast_pskip=0 / chroma_qp_offset=-2 / threads=12 / sliced_threads=0 / nr=0 / decimate=1 / interlaced=0 / bluray_compat=0 / constrained_intra=0 / bframes=9 / b_pyramid=2 / b_adapt=2 / b_bias=0 / direct=3 / weightb=1 / open_gop=0 / weightp=2 / keyint=250 / keyint_min=23 / scenecut=40 / intra_refresh=0 / rc_lookahead=40 / rc=2pass / mbtree=0 / bitrate=2934 / ratetol=1.0 / qcomp=0.65 / qpmin=1 / qpmax=65 / qpstep=4 / cplxblur=20.0 / qblur=0.5 / vbv_maxrate=40000 / vbv_bufsize=30000 / nal_hrd=none / ip_ratio=1.40 / pb_ratio=1.30 / aq=2:0.80 / zones=127617,132572,q=35
Language: English

Audio
ID: 2
Format: AC-3
Format/Info: Audio Coding 3
Mode extension: CM (complete main)
Codec ID: A_AC3
Duration: 1h 32mn
Bit rate mode: Constant
Bit rate: 448 Kbps
Channel(s): 6 channels
Channel positions: Front: L C R, Side: L R, LFE
Sampling rate: 48.0 KHz
Bit depth: 16 bits
Compression mode: Lossy
Stream size: 295 MiB (13%)
Title: Original
Language: Russian



[font=Georgia]Скриншоты для оценки качества:[/font]

[Для просмотра изображения необходимо включить JavaScript][Для просмотра изображения необходимо включить JavaScript][Для просмотра изображения необходимо включить JavaScript][Для просмотра изображения необходимо включить JavaScript][Для просмотра изображения необходимо включить JavaScript][Для просмотра изображения необходимо включить JavaScript]

Сравнение с исходником

[font=Georgia]Автор рипа:[/font] [font=Georgia]Vaippp[/font]

[font=Georgia]Релиз:[/font] [Для просмотра изображения необходимо включить JavaScript]

Постеры

Автор

Аватара пользователя
FireCool
Младший админ
Младший админ
 
Раздал: 4.58 ТБ
Скачал: 394.82 ГБ
Ратио: 11.877
Сообщения: 1299
Зарегистрирован: 03 май 2009, 07:58
Репутация: 48
Откуда: Красноярск


Торрент

Автор: FireCool
Добавлен: 18 июн 2011, 14:58
Размер: 2.18 ГБ
Размер: 2 338 044 942 байт
Сидеров: 0
Личеров: 0
Скачали: 0
Здоровье: 0%
Скорость скачивания: 0 байт/сек
Скорость раздачи: 0 байт/сек
Последний сидер: Нет
Последний личер: Нет
Приватный: Нет (DHT включён)
Скачать торрент
Скачать торрент
[ Размер 23.34 КБ / Просмотров 165 ]


Re: Тихая застава / Tikhaya zastava (2010) BDRip-AVC от HQ-ViDEO

Сообщение Asperatus » 19 июн 2011, 18:29

Хорош фильм...
Аватара пользователя
Asperatus
Супермодератор
Супермодератор
 
Раздал: 3.2 ТБ
Скачал: 936.22 ГБ
Ратио: 3.502
Сообщения: 462
Зарегистрирован: 05 май 2009, 03:39
Репутация: 20


Вернуться в импорт

Кто сейчас на конференции

Сейчас этот форум просматривают: GoGo.Ru [Bot] и гости: 1

Привет!

Привет, меня зовут Няша, я что-то типа ангела хранителя RipFunClub'а. Так как админ меня не дописал, я еще глупенькая, и ни чего не умею и между прочим мне за это очень стыдно =( К тому же мой вид меня смущает ='(

А пока я могу только предложить зарегистрироваться или залогинеться =)