Главная » ТрекерМусорАрхив
Бессовестная реклама: на этой странице пока нет =)

Бульвар страха / Rosewood Lane (2011) DVDRip

Забаненные и не прошедшие контроль торренты

Бульвар страха / Rosewood Lane (2011) DVDRip

Сообщение Asperatus » 17 авг 2012, 17:16

Страны: США
Жанр:ужасы, триллер
Год выпуска: 2011
Продолжительность: 01:31:51
Озвучивание: Профессиональное (многоголосое) [лицензия]
Cубтитры: нет
Режиссер: Виктор Сальва
В ролях: Роуз МакГоун, Рэй Уайз, Лорен Велес, Лин Шэй, Билл Фагербакки, Лесли-Энн Даун, Рэнс Ховард, Эштон Мойо, Джадсон Миллс, Том Тарантини

Описание: Вернувшись в родной городок, радиоведущая (и психиатр по совместительству) Сонни Блэк замечает странное поведение своего соседа, мальчика — разносчика газет. В городе как раз происходят убийства и поведение мальчика заставляет Сонни обратить на него самое пристальное внимание…


[Для просмотра изображения необходимо включить JavaScript]


Исходник: DVD5 R5
Качество: DVDRip
Формат: AVI

Видео: 1755 kb/s, 720x400
Аудио: AC3, 384 kb/s (6 ch)

Format: AVI
Format/Info: Audio Video Interleave
File size: 1.38 GiB
Duration: 1h 31mn
Overall bit rate: 2 149 Kbps
Writing application: VirtualDubMod 1.5.10.2 (build 2542/release)
Writing library: VirtualDubMod build 2542/release

Video
ID: 0
Format: MPEG-4 Visual
Format profile: Advanced Simple@L5
Format settings, BVOP: 2
Format settings, QPel: No
Format settings, GMC: No warppoints
Format settings, Matrix: Default (MPEG)
Codec ID: XVID
Codec ID/Hint: XviD
Duration: 1h 31mn
Bit rate: 1 755 Kbps
Width: 720 pixels
Height: 400 pixels
Display aspect ratio: 16:9
Frame rate: 25.000 fps
Color space: YUV
Chroma subsampling: 4:2:0
Bit depth: 8 bits
Scan type: Progressive
Compression mode: Lossy
Bits/(Pixel*Frame): 0.244
Stream size: 1.13 GiB (82%)
Writing library: XviD 1.2.1 (UTC 2008-12-04)

Audio
ID: 1
Format: AC-3
Format/Info: Audio Coding 3
Mode extension: CM (complete main)
Format settings, Endianness: Big
Codec ID: 2000
Duration: 1h 31mn
Bit rate mode: Constant
Bit rate: 384 Kbps
Channel(s): 6 channels
Channel positions: Front: L C R, Side: L R, LFE
Sampling rate: 48.0 KHz
Bit depth: 16 bits
Compression mode: Lossy
Stream size: 252 MiB (18%)
Alignment: Split accross interleaves
Interleave, duration: 40 ms (1.00 video frame)
Interleave, preload duration: 500 ms

У вас нет необходимых прав для просмотра вложений в этом сообщении.
Аватара пользователя
Asperatus
Супермодератор
Супермодератор
 
Раздал: 3.2 ТБ
Скачал: 936.22 ГБ
Ратио: 3.502
Сообщения: 462
Зарегистрирован: 05 май 2009, 03:39
Репутация: 20

Вернуться в Архив

Кто сейчас на конференции

Сейчас этот форум просматривают: нет зарегистрированных пользователей и гости: 1

Привет!

Привет, меня зовут Няша, я что-то типа ангела хранителя RipFunClub'а. Так как админ меня не дописал, я еще глупенькая, и ни чего не умею и между прочим мне за это очень стыдно =( К тому же мой вид меня смущает ='(

А пока я могу только предложить зарегистрироваться или залогинеться =)