Главная » ТрекерВидео (кино, ТВ)Художественное кинофильмы (Blu-Ray/BDRip/HD)Blu-Ray
Версия для печати
Бессовестная реклама: на этой странице пока нет =)

Прометей / Prometheus (2012) BDRemux 1080p

Здесь размещены фильмы в качестве Blu-ray
Правила форума

Сообщение

Прометей / Prometheus (2012) BDRemux 1080p

Сообщение Torrnado » 10 окт 2012, 11:23

Прометей / Prometheus

Страна: США, Великобритания
Жанр: фантастика, триллер, приключения
Год выпуска: 2012
Продолжительность: 02:03:46
Перевод: Профессиональный (дублированный)
Cубтитры: русские
Оригинальная аудиодорожка: английский
Режиссер: Ридли Скотт / Ridley Scott
В ролях: Нуми Рапас, Майкл Фассбендер, Шарлиз Терон, Идрис Эльба, Гай Пирс, Логан Маршалл-Грин, Шон Харрис, Рейф Сполл, Иман Эллиотт, Бенедикт Вонг
Описание: В поисках сакрального знания группа ученых отправляется в самые темные и неизведанные чертоги вселенной. Именно там, в отдаленных мирах, находясь на пределе своих умственных и физических возможностей, им предстоит вступить в безжалостную схватку за будущее всего человечества...
[Для просмотра изображения необходимо включить JavaScript] [Для просмотра изображения необходимо включить JavaScript]
Сэмпл

Тип релиза: BDRemux 1080p
Контейнер: BDAV
Видео: 1920x1080 at 23.976 fps, MPEG-4 AVC, ~28333 kbps avg
Аудио: Russian: 48 kHz, DTS, 3/2 (L,C,R,l,r) + LFE ch, ~768.00 kbps avg |Дубляж, Blu-ray EUR|
Аудио 2: Ukrainian: 48 kHz, AC3, 3/2 (L,C,R,l,r) + LFE ch, ~448.00 kbps avg |Дубляж, Blu-ray EUR|
Аудио 3: English: 48 kHz, DTS-HD MA 7.1, ~4984.00 kbps avg
Аудио 4: English: 48 kHz, AC3, 2/0 (L,R) ch, ~224.00 kbps avg |Commentary №1 (Ридли Скотт)|
Аудио 5: English: 48 kHz, AC3, 2/0 (L,R) ch, ~224.00 kbps avg |Commentary №2 (Джон Спэйтс)|
Субтитры: Russian, Ukrainian, English, Russian (Commentary №1), Russian (Commentary №2) и др.
Релиз от: [Для просмотра изображения необходимо включить JavaScript]
General
ID : 1
Complete name : D:\PROMETHEUS_2012_BD_REMUX_HDCLUB\BDMV\STREAM\00000.m2ts
Format : BDAV
Format/Info : Blu-ray Video
File size : 32.8 GiB
Duration : 2h 3mn
Overall bit rate : 38.0 Mbps
Maximum Overall bit rate : 35.5 Mbps

Video
ID : 4113 (0x1011)
Menu ID : 1 (0x1)
Format : AVC
Format/Info : Advanced Video Codec
Format profile : High@L4.1
Format settings, CABAC : Yes
Format settings, ReFrames : 2 frames
Duration : 2h 3mn
Width : 1 920 pixels
Height : 1 080 pixels
Display aspect ratio : 16:9
Frame rate : 23.976 fps
Resolution : 8 bits
Colorimetry : 4:2:0
Scan type : Progressive

Audio #1
ID : 4352 (0x1100)
Menu ID : 1 (0x1)
Format : DTS
Format/Info : Digital Theater Systems
Format profile : MA
Muxing mode : Stream extension
Duration : 2h 3mn
Bit rate mode : Variable
Channel(s) : 8 channels
Channel positions : Front: L C R, Surround: L C C R, LFE
Sampling rate : 48.0 KHz
Resolution : 24 bits
Language : English / /

Audio #2
ID : 4353 (0x1101)
Menu ID : 1 (0x1)
Format : DTS
Format/Info : Digital Theater Systems
Duration : 2h 3mn
Bit rate mode : Constant
Bit rate : 755 Kbps
Channel(s) : 6 channels
Channel positions : Front: L C R, Surround: L R, LFE
Sampling rate : 48.0 KHz
Resolution : 24 bits
Stream size : 668 MiB (2%)
Language : Russian / /

Audio #3
ID : 4354 (0x1102)
Menu ID : 1 (0x1)
Format : AC-3
Format/Info : Audio Coding 3
Duration : 2h 3mn
Bit rate mode : Constant
Bit rate : 448 Kbps
Channel(s) : 6 channels
Channel positions : Front: L C R, Surround: L R, LFE
Sampling rate : 48.0 KHz
Stream size : 397 MiB (1%)
Language : Ukrainian / /

Audio #4
ID : 4355 (0x1103)
Menu ID : 1 (0x1)
Format : AC-3
Format/Info : Audio Coding 3
Duration : 2h 3mn
Bit rate mode : Constant
Bit rate : 224 Kbps
Channel(s) : 2 channels
Channel positions : L R
Sampling rate : 48.0 KHz
Stream size : 198 MiB (1%)
Language : English / /

Audio #5
ID : 4356 (0x1104)
Menu ID : 1 (0x1)
Format : AC-3
Format/Info : Audio Coding 3
Duration : 2h 3mn
Bit rate mode : Constant
Bit rate : 224 Kbps
Channel(s) : 2 channels
Channel positions : L R
Sampling rate : 48.0 KHz
Stream size : 198 MiB (1%)
Language : English / /

Text #1
ID : 4608 (0x1200)
Menu ID : 1 (0x1)
Format : PGS
Language : Russian / /

Text #2
ID : 4609 (0x1201)
Menu ID : 1 (0x1)
Format : PGS
Language : Ukrainian / /

Text #3
ID : 4610 (0x1202)
Menu ID : 1 (0x1)
Format : PGS
Language : Russian / /

Text #4
ID : 4611 (0x1203)
Menu ID : 1 (0x1)
Format : PGS
Duration : 2h 3mn
Video delay : 4s 46ms
Language : Russian / /

Text #5
ID : 4612 (0x1204)
Menu ID : 1 (0x1)
Format : PGS
Language : English / /

Text #6
ID : 4613 (0x1205)
Menu ID : 1 (0x1)
Format : PGS
Language : French / /

Text #7
ID : 4614 (0x1206)
Menu ID : 1 (0x1)
Format : PGS
Language : Dutch / /

Text #8
ID : 4615 (0x1207)
Menu ID : 1 (0x1)
Format : PGS
Language : Arabic / /

Text #9
ID : 4616 (0x1208)
Menu ID : 1 (0x1)
Format : PGS
Language : Bulgarian / /

Text #10
ID : 4617 (0x1209)
Menu ID : 1 (0x1)
Format : PGS
Language : Chinese / /

Text #11
ID : 4618 (0x120A)
Menu ID : 1 (0x1)
Format : PGS
Language : Croatian / /

Text #12
ID : 4619 (0x120B)
Menu ID : 1 (0x1)
Format : PGS
Language : Czech / /

Text #13
ID : 4620 (0x120C)
Menu ID : 1 (0x1)
Format : PGS
Language : Greek / /

Text #14
ID : 4621 (0x120D)
Menu ID : 1 (0x1)
Format : PGS
Language : Hebrew / /

Text #15
ID : 4622 (0x120E)
Menu ID : 1 (0x1)
Format : PGS
Language : Hungarian / /

Text #16
ID : 4623 (0x120F)
Menu ID : 1 (0x1)
Format : PGS
Language : Icelandic / /

Text #17
ID : 4624 (0x1210)
Menu ID : 1 (0x1)
Format : PGS
Language : Indonesian / /

Text #18
ID : 4625 (0x1211)
Menu ID : 1 (0x1)
Format : PGS
Language : Korean / /

Text #19
ID : 4626 (0x1212)
Menu ID : 1 (0x1)
Format : PGS
Language : Malay / /

Text #20
ID : 4627 (0x1213)
Menu ID : 1 (0x1)
Format : PGS
Language : Chinese / /

Text #21
ID : 4628 (0x1214)
Menu ID : 1 (0x1)
Format : PGS
Language : Polish / /

Text #22
ID : 4629 (0x1215)
Menu ID : 1 (0x1)
Format : PGS
Language : Portuguese / /

Text #23
ID : 4630 (0x1216)
Menu ID : 1 (0x1)
Format : PGS
Language : Romanian / /

Text #24
ID : 4631 (0x1217)
Menu ID : 1 (0x1)
Format : PGS
Language : Serbian / /

Text #25
ID : 4632 (0x1218)
Menu ID : 1 (0x1)
Format : PGS
Language : Slovenian / /

Text #26
ID : 4633 (0x1219)
Menu ID : 1 (0x1)
Format : PGS
Language : Thai / /

Text #27
ID : 4634 (0x121A)
Menu ID : 1 (0x1)
Format : PGS
Language : Turkish / /

Text #28
ID : 4635 (0x121B)
Menu ID : 1 (0x1)
Format : PGS
Language : Vietnamese / /

Text #29
ID : 4636 (0x121C)
Menu ID : 1 (0x1)
Format : PGS
Language : French / /

Text #30
ID : 4637 (0x121D)
Menu ID : 1 (0x1)
Format : PGS
Language : Dutch / /

Text #31
ID : 4638 (0x121E)
Menu ID : 1 (0x1)
Format : PGS
Language : Korean / /

Text #32
ID : 4639 (0x121F)
Menu ID : 1 (0x1)
Format : PGS
Duration : 2h 3mn
Video delay : 4s 46ms
Language : French / /

Text #33
ID : 4640 (0x1220)
Menu ID : 1 (0x1)
Format : PGS
Duration : 2h 3mn
Video delay : 4s 46ms
Language : Dutch / /

Text #34
ID : 4641 (0x1221)
Menu ID : 1 (0x1)
Format : PGS
Duration : 2h 3mn
Video delay : 4s 46ms
Language : Korean / /
[Для просмотра изображения необходимо включить JavaScript][Для просмотра изображения необходимо включить JavaScript][Для просмотра изображения необходимо включить JavaScript][Для просмотра изображения необходимо включить JavaScript][Для просмотра изображения необходимо включить JavaScript][Для просмотра изображения необходимо включить JavaScript][Для просмотра изображения необходимо включить JavaScript][Для просмотра изображения необходимо включить JavaScript]

Постеры

Автор

Аватара пользователя
Torrnado
Супераплоадеры
Супераплоадеры
 
Раздал: 30.33 ГБ
Скачал: 84.02 ГБ
Ратио: 0.361
Сообщения: 125
Зарегистрирован: 19 сен 2010, 19:02
Репутация: 8


Торрент

Автор: Torrnado
Добавлен: 10 окт 2012, 11:22
Размер: 32.83 ГБ
Размер: 35 248 384 240 байт
Сидеров: 15
Личеров: 6
Скачали: 0
Здоровье: 100%
Статус: Проверен
Изменил: maxwell (10 окт 2012, 11:27)
Скорость скачивания: 0 байт/сек
Скорость раздачи: 0 байт/сек
Последний сидер: 3 дня 3 часа 17 минут назад
Последний личер: 3 дня 3 часа 17 минут назад
Приватный: Нет (DHT включён)
Blu-Ray Скачать торрент
Скачать торрент
[ Размер 84.02 КБ / Просмотров 18 ]


Вернуться в Blu-Ray

Кто сейчас на конференции

Сейчас этот форум просматривают: нет зарегистрированных пользователей и гости: 1

Привет!

Привет, меня зовут Няша, я что-то типа ангела хранителя RipFunClub'а. Так как админ меня не дописал, я еще глупенькая, и ни чего не умею и между прочим мне за это очень стыдно =( К тому же мой вид меня смущает ='(

А пока я могу только предложить зарегистрироваться или залогинеться =)