Главная » ТрекерВидео (кино, ТВ)Художественное кинофильмы (Blu-Ray/BDRip/HD)Blu-Ray
Версия для печати
Бессовестная реклама: на этой странице пока нет =)

Жизнь Пи / Life of Pi (2012) BDRemux

Здесь размещены фильмы в качестве Blu-ray
Правила форума

Сообщение

Жизнь Пи / Life of Pi (2012) BDRemux

Сообщение Torrnado » 09 мар 2013, 14:39

Название: Жизнь Пи
Оригинальное название: Life of Pi
Год выпуска: 2012
Жанр: Драма, приключения
Выпущено: США, Китай, Fox 2000 Pictures
Режиссер: Энг Ли
В ролях: Сурадж Шарма, Ирфан Кхан, Табу, Рейф Сполл, Жерар Депардье, Аюш Тандон, Гаутам Белур, Адиль Хуссэйн, Аян Кхан, Мохд Аббас Халили, Вибиш Шивакумар, Джеймс Саито, Джан Наито, Андреа Ди Стефано, Шраванти Сайнат, Эли Алуф, Падмини Рамачандран, Т.М. Картик Сринивасан, Амарендран Раманан, Хари Мина Бала, Бо-Чи Ван, Ко И-Чен, Дзян-вэй Хуан, Рави Натесан, Адянт Баладжи, Чираг Агарвал, Ахан Андре Камат, Ом Камат, Срилех Катта, Свати Ван Риджсвийк, Индумохан Пурнима, Жозефин Нитья Б., Самиукта С., Митили Пракаш, Радж Патель, Хадига Хамид, Исвар Срикумар

О фильме: Главный герой фильма оказывается на шлюпке посреди океана в компании неожиданного попутчика — грозного бенгальского тигра.

[Для просмотра изображения необходимо включить JavaScript]

Файл
Качество: Blu-Ray Remux (1080p)
Видео: MPEG-4 AVC, 24 Мбит/с, 1920x1080, 23.976 кадр/с
Аудио: Русский (DTS, 6 ch, 768 Кбит/c), украинский (AC3, 6 ch, 448 Кбит/c), английский (DTS-HD MA, 8 ch, 4702 Кбит/c)
Размер: 24.27 ГБ
Продолжительность: 02:06:59
Перевод: Дублированный [лицензия]
Субтитры: Русские, английские, украинские

Семпл

General
Unique ID : 221180955883219873492566061968678019304 (0xA665E71136020157ACFF45781AB960E8)
Complete name : Zhizn.Pi.2012.D.BD-Remux.1080p.IRONCLUB.mkv
Format : Matroska
Format version : Version 2
File size : 24.3 GiB
Duration : 2h 6mn
Overall bit rate mode : Variable
Overall bit rate : 27.4 Mbps
Movie name : IRONCLUB
Encoded date : UTC 2013-03-08 10:22:11
Writing application : mkvmerge v5.2.0 ('I can't explain') built on Dec 18 2011 18:12:03
Writing library : libebml v1.2.3 + libmatroska v1.3.0

Video
ID : 1
Format : AVC
Format/Info : Advanced Video Codec
Format profile : High@L4.1
Format settings, CABAC : Yes
Format settings, ReFrames : 3 frames
Muxing mode : Container profile=Unknown@0.0
Codec ID : V_MPEG4/ISO/AVC
Duration : 2h 6mn
Bit rate mode : Variable
Bit rate : 24.0 Mbps
Maximum bit rate : 30.0 Mbps
Width : 1 920 pixels
Height : 1 080 pixels
Display aspect ratio : 16:9
Frame rate : 23.976 fps
Color space : YUV
Chroma subsampling : 4:2:0
Bit depth : 8 bits
Scan type : Progressive
Bits/(Pixel*Frame) : 0.483
Stream size : 21.3 GiB (88%)
Title : Life of Pi (2012)
Language : English
Default : Yes
Forced : Yes

Audio #1
ID : 2
Format : DTS
Format/Info : Digital Theater Systems
Codec ID : A_DTS
Duration : 2h 6mn
Bit rate mode : Constant
Bit rate : 755 Kbps
Channel(s) : 6 channels
Channel positions : Front: L C R, Side: L R, LFE
Sampling rate : 48.0 KHz
Bit depth : 24 bits
Compression mode : Lossy
Stream size : 685 MiB (3%)
Title : DTS 5.1 @ 768 kbps - Dub, Blu-ray
Language : Russian
Default : Yes
Forced : Yes

Audio #2
ID : 3
Format : AC-3
Format/Info : Audio Coding 3
Mode extension : CM (complete main)
Format settings, Endianness : Big
Codec ID : A_AC3
Duration : 2h 6mn
Bit rate mode : Constant
Bit rate : 448 Kbps
Channel(s) : 6 channels
Channel positions : Front: L C R, Side: L R, LFE
Sampling rate : 48.0 KHz
Bit depth : 16 bits
Compression mode : Lossy
Stream size : 407 MiB (2%)
Title : DD 5.1 @ 448 kbps - Dub, Blu-ray
Language : Ukrainian
Default : No
Forced : No

Audio #3
ID : 4
Format : DTS
Format/Info : Digital Theater Systems
Format profile : MA / Core
Codec ID : A_DTS
Duration : 2h 6mn
Bit rate mode : Variable
Bit rate : 1 597 Kbps / 1 510 Kbps
Channel(s) : 8 channels / 6 channels
Channel positions : Front: L C R, Side: L R, Back: L R, LFE / Front: L C R, Side: L R, LFE
Sampling rate : 48.0 KHz
Bit depth : 24 bits
Compression mode : Lossless / Lossy
Title : DTS-HD, 4702 kbps (8 ch)
Language : English
Default : No
Forced : No

Text #1
ID : 5
Format : UTF-8
Codec ID : S_TEXT/UTF8
Codec ID/Info : UTF-8 Plain Text
Title : Forced
Language : Russian
Default : No
Forced : No

Text #2
ID : 6
Format : UTF-8
Codec ID : S_TEXT/UTF8
Codec ID/Info : UTF-8 Plain Text
Title : Blu-ray
Language : Russian
Default : No
Forced : No

Text #3
ID : 7
Format : UTF-8
Codec ID : S_TEXT/UTF8
Codec ID/Info : UTF-8 Plain Text
Title : Blu-ray
Language : Ukrainian
Default : No
Forced : No

Text #4
ID : 8
Format : UTF-8
Codec ID : S_TEXT/UTF8
Codec ID/Info : UTF-8 Plain Text
Title : Forced
Language : English
Default : No
Forced : No

Text #5
ID : 9
Format : UTF-8
Codec ID : S_TEXT/UTF8
Codec ID/Info : UTF-8 Plain Text
Language : English
Default : No
Forced : No

Menu
00:00:00.000 : en:00:00:00.000
00:03:58.822 : en:00:03:58.822
00:11:13.172 : en:00:11:13.172
00:15:24.924 : en:00:15:24.924
00:21:29.622 : en:00:21:29.622
00:25:44.543 : en:00:25:44.543
00:29:46.827 : en:00:29:46.827
00:31:31.014 : en:00:31:31.014
00:35:34.299 : en:00:35:34.299
00:45:24.347 : en:00:45:24.347
00:50:21.894 : en:00:50:21.894
00:54:13.333 : en:00:54:13.333
00:57:18.352 : en:00:57:18.352
01:00:07.395 : en:01:00:07.395
01:04:12.057 : en:01:04:12.057
01:09:32.085 : en:01:09:32.085
01:11:48.054 : en:01:11:48.054
01:13:34.285 : en:01:13:34.285
01:16:47.561 : en:01:16:47.561
01:21:31.178 : en:01:21:31.178
01:23:10.027 : en:01:23:10.027
01:26:30.852 : en:01:26:30.852
01:31:21.434 : en:01:31:21.434
01:34:13.857 : en:01:34:13.857
01:43:42.675 : en:01:43:42.675
01:47:38.661 : en:01:47:38.661
01:55:20.080 : en:01:55:20.080
01:59:16.274 : en:01:59:16.274

Релиз от: [Для просмотра изображения необходимо включить JavaScript]

Постеры

Автор

Аватара пользователя
Torrnado
Супераплоадеры
Супераплоадеры
 
Раздал: 30.33 ГБ
Скачал: 84.02 ГБ
Ратио: 0.361
Сообщения: 125
Зарегистрирован: 19 сен 2010, 19:02
Репутация: 8


Торрент

Автор: Torrnado
Добавлен: 09 мар 2013, 14:39
Размер: 24.27 ГБ
Размер: 26 058 062 657 байт
Сидеров: 5
Личеров: 102
Скачали: 1
Здоровье: 4%
Статус: Проверен
Изменил: T E K (09 мар 2013, 14:44)
Скорость скачивания: 0 байт/сек
Скорость раздачи: 0 байт/сек
Последний сидер: 7 дней 7 часов 33 минуты 14 секунд назад
Последний личер: 7 дней 7 часов 33 минуты 14 секунд назад
Приватный: Нет (DHT включён)
Blu-Ray Скачать торрент
Скачать торрент
[ Размер 121.72 КБ / Просмотров 23 ]


Вернуться в Blu-Ray

Кто сейчас на конференции

Сейчас этот форум просматривают: нет зарегистрированных пользователей и гости: 1

Привет!

Привет, меня зовут Няша, я что-то типа ангела хранителя RipFunClub'а. Так как админ меня не дописал, я еще глупенькая, и ни чего не умею и между прочим мне за это очень стыдно =( К тому же мой вид меня смущает ='(

А пока я могу только предложить зарегистрироваться или залогинеться =)