Главная » ТрекерВидео (кино, ТВ)Художественное кинофильмы (Blu-Ray/BDRip/HD)Blu-Ray
Версия для печати
Бессовестная реклама: на этой странице пока нет =)

Охотники на гангстеров / Gangster Squad (2013) BDRemux 1080p

Здесь размещены фильмы в качестве Blu-ray
Правила форума

Сообщение

Охотники на гангстеров / Gangster Squad (2013) BDRemux 1080p

Сообщение bambywa » 07 апр 2013, 14:06

Название: Охотники на гангстеров Оригинальное название: Gangster Squad
Год выхода: 2013
Жанр: Боевик, триллер, драма, криминал
Режиссер: Рубен Флейшер
В ролях: Джош Бролин, Райан Гослинг, Ник Нолти, Эмма Стоун, Энтони Маки, Джованни Рибизи, Майкл Пенья, Роберт Патрик, Шон Пенн, Холт МакКэллани

О фильме:
Лос-Анджелес, 1949 год. Уроженец Бруклина, жестокий главарь банды Микки Коэн держит город в ежовых рукавицах, собирая «грязные» деньги от торговли наркотиками, оружием и проституции, и — если все пойдет, как надо, — к Западу от Чикаго мышь не пискнет без его ведома. Защищают его не только его же головорезы, но и находящиеся у него «на крючке» полиция и политики. Этого хватит, чтобы запугать даже самых смелых, закаленных улицей копов… кроме, пожалуй, небольшой тайной группы сотрудников полицейского департамента Лос-Анджелеса во главе с сержантом Джоном О’Мара и Джерри Вутерсом, которые объединились, чтобы попытаться уничтожить преступный мир Коэна.

[Для просмотра изображения необходимо включить JavaScript]

Страна: США
Студия: , Langley Park Productions, Lin Pictures, Village Roadshow Pictures
Продолжительность: 01:52:55
Перевод: Дублированный (iTunes-Russia)

Качество: BDRemux (1080p)
Видео: MPEG-4 AVC, 20.2 Мбит/с, 1920x1080, 23.976 кадр/с
Звук: Русский (AC3, 6 ch, 384 Кбит/с), английский (DTS-HD MA, 6 ch, 2233 Кбит/с), (AC3, 2 ch, 192 Кбит/с - комментарии)
Субтитры: Русские, английские
Общее
Уникальный идентификатор : 175334055845447337240466512828326355536 (0x83E81C602A3BE41CA907291EBCEE2250)
Полное имя : E:VideoGangster.Squad.2013.D.BDRemux.1080p.mkv
Формат : Matroska
Версия формата : Version 2
Размер файла : 18,5 Гбайт
Продолжительность : 1 ч. 52 м.
Режим общего битрейта : Переменный
Общий поток : 23,4 Мбит/сек
Дата кодирования : UTC 2013-04-07 09:56:59
Программа кодирования : mkvmerge v6.1.0 ('Old Devil') built on Mar 2 2013 14:32:37
Библиотека кодирования : libebml v1.3.0 + libmatroska v1.4.0

Видео
Идентификатор : 1
Формат : AVC
Формат/Информация : Advanced Video Codec
Профиль формата : High@L4.1
Параметр CABAC формата : Да
Параметр ReFrames формата : 2 кадра
Режим смешивания : Container profile=Unknown@0.0
Идентификатор кодека : V_MPEG4/ISO/AVC
Продолжительность : 1 ч. 52 м.
Вид битрейта : Переменный
Ширина : 1920 пикселей
Высота : 1080 пикселей
Соотношение сторон : 16:9
Режим частоты кадров : Постоянный
Частота кадров : 23,976 кадра/сек
Цветовое пространство : YUV
Субдискретизация насыщенности : 4:2:0
Битовая глубина : 8 бит
Тип развёртки : Прогрессивная
Язык : English
Default : Да
Forced : Нет

Аудио #1
Идентификатор : 2
Формат : AC-3
Формат/Информация : Audio Coding 3
Расширение режима : CM (complete main)
Параметр Endianness формата : Big
Идентификатор кодека : A_AC3
Продолжительность : 1 ч. 52 м.
Вид битрейта : Постоянный
Битрейт : 384 Кбит/сек
Каналы : 6 каналов
Расположение каналов : Front: L C R, Side: L R, LFE
Частота : 48,0 КГц
Битовая глубина : 16 бит
Метод сжатия : С потерями
Размер потока : 310 Мбайт (2%)
Язык : Russian
Default : Да
Forced : Нет

Аудио #2
Идентификатор : 3
Формат : DTS
Формат/Информация : Digital Theater Systems
Профиль формата : MA / Core
Режим : 16
Параметр Endianness формата : Big
Идентификатор кодека : A_DTS
Продолжительность : 1 ч. 52 м.
Вид битрейта : Переменный
Битрейт : Неизвестно / 1509 Кбит/сек
Каналы : 6 каналов
Расположение каналов : Front: L C R, Side: L R, LFE
Частота : 48,0 КГц
Битовая глубина : 16 бит
Метод сжатия : Без потерь / Lossy
Язык : English
Default : Нет
Forced : Нет

Аудио #3
Идентификатор : 4
Формат : AC-3
Формат/Информация : Audio Coding 3
Профиль формата : Dolby Digital
Расширение режима : CM (complete main)
Параметр Endianness формата : Big
Идентификатор кодека : A_AC3
Продолжительность : 1 ч. 52 м.
Вид битрейта : Постоянный
Битрейт : 192 Кбит/сек
Каналы : 2 канала
Расположение каналов : Front: L R
Частота : 48,0 КГц
Битовая глубина : 16 бит
Метод сжатия : С потерями
Размер потока : 155 Мбайт (1%)
Заголовок : Commentary
Язык : English
Default : Нет
Forced : Нет

Текст #1
Идентификатор : 5
Формат : UTF-8
Идентификатор кодека : S_TEXT/UTF8
Идентификатор кодека/Информация : UTF-8 Plain Text
Заголовок : Force
Язык : Russian
Default : Да
Forced : Да

Текст #2
Идентификатор : 6
Формат : UTF-8
Идентификатор кодека : S_TEXT/UTF8
Идентификатор кодека/Информация : UTF-8 Plain Text
Заголовок : Full
Язык : Russian
Default : Нет
Forced : Нет

Текст #3
Идентификатор : 7
Формат : UTF-8
Идентификатор кодека : S_TEXT/UTF8
Идентификатор кодека/Информация : UTF-8 Plain Text
Язык : English
Default : Нет
Forced : Нет

Текст #4
Идентификатор : 8
Формат : UTF-8
Идентификатор кодека : S_TEXT/UTF8
Идентификатор кодека/Информация : UTF-8 Plain Text
Заголовок : SDH
Язык : English
Default : Нет
Forced : Нет

Меню
00:00:00.000 : en:
00:09:53.634 : en:
00:20:51.166 : en:
00:28:36.172 : en:
00:39:22.860 : en:
00:49:25.462 : en:
00:59:59.262 : en:
01:09:23.492 : en:
01:20:05.258 : en:
01:31:01.539 : en:
01:38:50.341 : en:
01:44:11.370 : en:

Постеры

Автор

Аватара пользователя
bambywa
Релизер
Релизер
 
Раздал: 281.45 МБ
Скачал: 9.51 ГБ
Ратио: 0.029
Сообщения: 1596
Зарегистрирован: 18 апр 2010, 10:45
Репутация: 26


Торрент

Автор: bambywa
Добавлен: 07 апр 2013, 14:06
Размер: 18.5 ГБ
Размер: 19 861 017 121 байт
Сидеров: 2
Личеров: 139
Скачали: 0
Здоровье: 1%
Статус: Проверен
Изменил: T E K (07 апр 2013, 14:08)
Скорость скачивания: 0 байт/сек
Скорость раздачи: 0 байт/сек
Последний сидер: 7 часов 34 минуты 41 секунду назад
Последний личер: 7 часов 34 минуты 41 секунду назад
Приватный: Нет (DHT включён)
Blu-Ray Скачать торрент
Скачать торрент
[ Размер 46.7 КБ / Просмотров 24 ]


Вернуться в Blu-Ray

Кто сейчас на конференции

Сейчас этот форум просматривают: нет зарегистрированных пользователей и гости: 1

Привет!

Привет, меня зовут Няша, я что-то типа ангела хранителя RipFunClub'а. Так как админ меня не дописал, я еще глупенькая, и ни чего не умею и между прочим мне за это очень стыдно =( К тому же мой вид меня смущает ='(

А пока я могу только предложить зарегистрироваться или залогинеться =)