Главная » ТрекерВидео (кино, ТВ)Художественное кинофильмы (Blu-Ray/BDRip/HD)Blu-Ray
Версия для печати
Бессовестная реклама: на этой странице пока нет =)

Тайна перевала Дятлова / The Dyatlov Pass Incident (2013) BDRemux 1080p | Лицензия

Здесь размещены фильмы в качестве Blu-ray
Правила форума

Сообщение

Тайна перевала Дятлова / The Dyatlov Pass Incident (2013) BDRemux 1080p | Лицензия

Сообщение teaken » 18 апр 2013, 18:02

Тайна перевала Дятлова / The Dyatlov Pass Incident

Название: Тайна перевала Дятлова
Оригинальное название: The Dyatlov Pass Incident
Страна: Россия [Для просмотра изображения необходимо включить JavaScript], США [Для просмотра изображения необходимо включить JavaScript]
Жанр: триллер, ужасы, фантастика
Год выпуска: 2013
Режиссёр: Ренни Харлин
В ролях: Холли Госс, Мэтт Стокоу, Люк Олбрайт, Райан Хоули, Джемма Аткинсон, Николай Бутенин, Ричард Рейд, Анастасия Бурдина, Валерия Федорович, Нелли Нилсен

Описание: Сюжет фильма основан на реальных событиях, произошедших в 1959-м году. В 2012-м году группа американских студентов, получив грант, отправляется на уральские горы, следуя тем же маршрутом, что и группа Дятлова, чтобы попытаться восстановить картину и разгадать причину таинственной, мистической и до сих пор не разгаданной гибели советских лыжников.

[Для просмотра изображения необходимо включить JavaScript]

Ограничение по возрасту: 16+
Рейтинг R - Детям до 17 лет обязательно присутствие родителей

Продолжительность: 01:40:24
Перевод: Профессиональный (многоголосый, закадровый) | Лицензия
Субтитры: отсутствуют

Качество: BDRemux 1080p
Формат файла: MKV
Видео кодек: MPEG2
Аудио кодек: DTS
Видео: 26,8 Мбит/сек, 1920 x 1080 (1.778), 24.000 fps
Аудио: DTS; 755 Кбит/сек, 6 каналов, 48,0 КГц
• 23 января 1959 года группа из девяти опытных лыжных туристов под руководством студента политехнического института Игоря Дятлова отправилась в лыжный поход по горам. Спустя неделю, 1 февраля, группа остановилась на склоне горы Холатчахль (в переводе с мансийского — Гора Мертвецов), неподалеку от безымянного перевала, получившего впоследствии имя Дятлова. К 12 февраля они должны были вернуться в цивилизацию и выйти на связь, но в конечной точке маршрута так и не объявились.
• Официальное следствие предположило, что трагедия произошла из-за схода лавины. Позднее появилось несколько версий случившегося — от криминальных и конспирологических до мистических и паранормальных. Обвиняли диких зверей, беглых заключенных из окрестных колоний, солдат, принявших туристов за беглых заключенных, местных жителей из племени манси, для которых Холатчахль имеет ритуальное значение, военных, якобы испытывавших в отдаленной местности новое секретное оружие, агентов иностранной разведки и даже космических пришельцев.
• О гибели группы Дятлова было написано несколько исследований и снято несколько документальных фильмов. Однако до сих пор никаких внятных и вразумительных объяснений трагедии полувековой давности на сегодняшний день нет.
Общее
Уникальный идентификатор : 182061022084768177195725359906921022682 (0x88F7AD6AFEFCD725B5606568102284DA)
Полное имя : C:UsersDimazDesktopThe.Dyatlov.Pass.Incident .BDRemux.mkv
Формат : Matroska
Версия формата : Version 4 / Version 2
Размер файла : 19,7 Гбайт
Продолжительность : 1 ч. 40 м.
Режим общего битрейта : Переменный
Общий поток : 28,1 Мбит/сек
Название фильма : The Dyatlov Pass Incident
Дата кодирования : UTC 2013-04-18 14:29:37
Программа кодирования : mkvmerge v6.1.0 ('Old Devil') built on Mar 2 2013 14:32:37
Библиотека кодирования : libebml v1.3.0 + libmatroska v1.4.0

Видео
Идентификатор : 1
Формат : MPEG Video
Версия формата : Version 2
Профиль формата : Main@High
Параметр BVOP формата : Нет
Параметр матрицы формата : По умолчанию
Идентификатор кодека : V_MPEG2
Идентификатор кодека/Информация : MPEG 1 or 2 Video
Продолжительность : 1 ч. 40 м.
Вид битрейта : Переменный
Битрейт : 26,8 Мбит/сек
Максимальный битрейт : 32,0 Мбит/сек
Ширина : 1920 пикселей
Высота : 1080 пикселей
Соотношение сторон : 16:9
Режим частоты кадров : Постоянный
Частота кадров : 24,000 кадра/сек
Цветовое пространство : YUV
Субдискретизация насыщенности : 4:2:0
Битовая глубина : 8 бит
Метод сжатия : С потерями
Бит/(Пиксели*Кадры) : 0.538
TimeCode_FirstFrame : 00:00:00:00
TimeCode_Source : Group of pictures header
Размер потока : 18,8 Гбайт (95%)
Заголовок : The Dyatlov Pass Incident
Default : Да
Forced : Нет

Аудио
Идентификатор : 2
Формат : DTS
Формат/Информация : Digital Theater Systems
Режим : 16
Параметр Endianness формата : Big
Идентификатор кодека : A_DTS
Продолжительность : 1 ч. 40 м.
Вид битрейта : Постоянный
Битрейт : 755 Кбит/сек
Каналы : 6 каналов
Расположение каналов : Front: L C R, Side: L R, LFE
Частота : 48,0 КГц
Битовая глубина : 24 бит
Метод сжатия : С потерями
Размер потока : 542 Мбайт (3%)
Язык : Russian
Default : Да
Forced : Нет

Постеры

Автор

Аватара пользователя
teaken
Супераплоадеры
Супераплоадеры
 
Раздал: 3.19 ГБ
Скачал: 8.6 ГБ
Ратио: 0.371
Сообщения: 3065
Зарегистрирован: 20 фев 2010, 16:37
Репутация: 64


Торрент

Автор: teaken
Добавлен: 18 апр 2013, 18:02
Размер: 19.7 ГБ
Размер: 21 151 529 191 байт
Сидеров: 29
Личеров: 734
Скачали: 1
Здоровье: 3%
Статус: Проверен
Изменил: T E K (18 апр 2013, 18:03)
Скорость скачивания: 0 байт/сек
Скорость раздачи: 0 байт/сек
Последний сидер: 6 дней 16 часов 50 минут 59 секунд назад
Последний личер: 6 дней 16 часов 50 минут 59 секунд назад
Приватный: Нет (DHT включён)
Blu-Ray Скачать торрент
Скачать торрент
[ Размер 49.78 КБ / Просмотров 33 ]


Вернуться в Blu-Ray

Кто сейчас на конференции

Сейчас этот форум просматривают: нет зарегистрированных пользователей и гости: 1

Привет!

Привет, меня зовут Няша, я что-то типа ангела хранителя RipFunClub'а. Так как админ меня не дописал, я еще глупенькая, и ни чего не умею и между прочим мне за это очень стыдно =( К тому же мой вид меня смущает ='(

А пока я могу только предложить зарегистрироваться или залогинеться =)