Главная » ТрекерВидео (кино, ТВ)Художественное кинофильмы (Blu-Ray/BDRip/HD)Blu-Ray
Версия для печати
Бессовестная реклама: на этой странице пока нет =)

Мальчишник: Часть III / The Hangover Part III (2013) | Blu-ray Remux-1080p

Здесь размещены фильмы в качестве Blu-ray
Правила форума

Сообщение

Мальчишник: Часть III / The Hangover Part III (2013) | Blu-ray Remux-1080p

Сообщение tukat » 21 сен 2013, 10:39

Название: Мальчишник: Часть III
Оригинальное название: The Hangover Part III
Год выпуска: 2013
Жанр: Комедия
Режиссер: Тодд Филлипс
В ролях: Брэдли Купер, Мелисса МакКарти, Джон Гудмен, Джейми Чунг, Зак Галифианакис, Джастин Барта, Хезер Грэм, Эд Хелмс, Кен Жонг, Александра Баррези

Описание: В этот раз никакой свадьбы. Никакого мальчишника. Казалось бы, что могло пойти не так? Но когда Волчья стая оказывается на дороге, все ставки снимаются.

[Для просмотра изображения необходимо включить JavaScript]

Выпущено: США, Green Hat Films, Legendary Pictures
Продолжительность: 01:40:06
Перевод: Дублированный [iTunes]

Качество: Blu-ray Remux-1080p
Видео: MPEG-4 AVC, 26.4 Мбит/с, 1920x1080
Аудио rus: AC3, 6 ch, 384 Кбит/с
Аудио ukr: AC3, 2 ch, 384 Кбит/с
Аудио eng: DTS-HD МА, 6 ch, 3714 Кбит/с
Субтитры: Русские, английские, украинские
Complete name : N:DATAMalchishnik-3.2013.MPEG-4-AVC.BluRay-Remux(1080p).mkv
Format : Matroska
Format version : Version 4 / Version 2
File size : 21.6 GiB
Duration : 1h 40mn
Overall bit rate mode : Variable
Overall bit rate : 30.9 Mbps
Movie name : --SCHUMAHER--
Encoded date : UTC 2010-02-22 21:41:31
Writing application : mkvmerge v5.9.0 ('On The Loose') built on Dec 9 2012 15:37:01
Writing library : libebml v1.3.0 + libmatroska v1.4.0

Video
ID : 1
Format : AVC
Format/Info : Advanced Video Codec
Format profile : High@L4.1
Format settings, CABAC : Yes
Format settings, ReFrames : 2 frames
Codec ID : V_MPEG4/ISO/AVC
Duration : 1h 40mn
Bit rate mode : Variable
Width : 1 920 pixels
Height : 1 080 pixels
Display aspect ratio : 16:9
Frame rate mode : Constant
Frame rate : 23.976 fps
Color space : YUV
Chroma subsampling : 4:2:0
Bit depth : 8 bits
Scan type : Progressive
Language : English
Default : Yes
Forced : Yes

Audio #1
ID : 2
Format : AC-3
Format/Info : Audio Coding 3
Mode extension : CM (complete main)
Format settings, Endianness : Big
Codec ID : A_AC3
Duration : 1h 40mn
Bit rate mode : Constant
Bit rate : 384 Kbps
Channel(s) : 6 channels
Channel positions : Front: L C R, Side: L R, LFE
Sampling rate : 48.0 KHz
Bit depth : 16 bits
Compression mode : Lossy
Stream size : 275 MiB (1%)
Language : Russian
Default : Yes
Forced : Yes

Audio #2
ID : 3
Format : AC-3
Format/Info : Audio Coding 3
Mode extension : CM (complete main)
Format settings, Endianness : Big
Codec ID : A_AC3
Duration : 1h 40mn
Bit rate mode : Constant
Bit rate : 384 Kbps
Channel(s) : 2 channels
Channel positions : Front: L R
Sampling rate : 48.0 KHz
Bit depth : 16 bits
Compression mode : Lossy
Delay relative to video : 963ms
Stream size : 275 MiB (1%)
Language : Ukrainian
Default : No
Forced : No

Audio #3
ID : 4
Format : DTS
Format/Info : Digital Theater Systems
Format profile : MA / Core
Mode : 16
Format settings, Endianness : Big
Codec ID : A_DTS
Duration : 1h 40mn
Bit rate mode : Variable
Bit rate : Unknown / 1 509 Kbps
Channel(s) : 6 channels
Channel positions : Front: L C R, Side: L R, LFE
Sampling rate : 48.0 KHz
Bit depth : 24 bits
Compression mode : Lossless / Lossy
Language : English
Default : No
Forced : No

Text #1
ID : 5
Format : UTF-8
Codec ID : S_TEXT/UTF8
Codec ID/Info : UTF-8 Plain Text
Title : Forced
Language : Russian
Default : Yes
Forced : Yes

Text #2
ID : 6
Format : UTF-8
Codec ID : S_TEXT/UTF8
Codec ID/Info : UTF-8 Plain Text
Title : Full
Language : Russian
Default : No
Forced : No

Text #3
ID : 7
Format : UTF-8
Codec ID : S_TEXT/UTF8
Codec ID/Info : UTF-8 Plain Text
Title : Forced
Language : Ukrainian
Default : No
Forced : No

Text #4
ID : 8
Format : UTF-8
Codec ID : S_TEXT/UTF8
Codec ID/Info : UTF-8 Plain Text
Title : Full
Language : Ukrainian
Default : No
Forced : No

Text #5
ID : 9
Format : UTF-8
Codec ID : S_TEXT/UTF8
Codec ID/Info : UTF-8 Plain Text
Language : English
Default : No
Forced : No

Menu
00:00:00.000 : en:00:00:00.000
00:10:49.983 : en:00:10:49.983
00:17:47.692 : en:00:17:47.692
00:26:16.992 : en:00:26:16.992
00:37:56.858 : en:00:37:56.858
00:47:01.736 : en:00:47:01.736
00:55:08.680 : en:00:55:08.680
01:06:09.632 : en:01:06:09.632
01:19:41.735 : en:01:19:41.735
01:27:44.843 : en:01:27:44.843
01:34:53.021 : en:01:34:53.021
ORIGINAL DISC INFO:
Disc Title: The.Hangover.Part.III.2013.1080p.BluRay.AVC.DTS-HD.MA.5.1
Disc Size: 29,519,588,208 bytes
Protection: AACS
BD-Java: Yes
BDInfo: 0.5.8

PLAYLIST REPORT:

Name: 00100.MPLS
Length: 1:40:08.043 (h:m:s.ms)
Size: 25,027,676,160 bytes
Total Bitrate: 33.33 Mbps

VIDEO:

Codec Bitrate Deion
----- ------- -----------
MPEG-4 AVC Video 26451 kbps 1080p / 23.976 fps / 16:9 / High Profile 4.1

AUDIO:

Codec Language Bitrate Deion
----- -------- ------- -----------
DTS-HD Master Audio English 3714 kbps 5.1 / 48 kHz / 3714 kbps / 24-bit (DTS Core: 5.1 / 48 kHz / 1509 kbps / 24-bit)
Dolby Digital Audio French 640 kbps 5.1 / 48 kHz / 640 kbps / DN -4dB
Dolby Digital Audio Spanish 640 kbps 5.1 / 48 kHz / 640 kbps / DN -4dB

SUBTITLES:

Codec Language Bitrate Deion
----- -------- ------- -----------
Presentation Graphics English 32.770 kbps
Presentation Graphics French 22.769 kbps
Presentation Graphics Spanish 28.719 kbps
Presentation Graphics Spanish 0.246 kbps

Постеры

Автор

Аватара пользователя
tukat
Супераплоадеры
Супераплоадеры
 
Раздал: 999.61 МБ
Скачал: 4.91 ГБ
Ратио: 0.199
Сообщения: 2438
Зарегистрирован: 24 мар 2010, 14:33
Репутация: 27


Торрент

Автор: tukat
Добавлен: 21 сен 2013, 10:39
Размер: 21.64 ГБ
Размер: 23 234 871 843 байт
Сидеров: 10
Личеров: 78
Скачали: 1
Здоровье: 12%
Статус: Проверен
Изменил: T E K (21 сен 2013, 10:41)
Скорость скачивания: 0 байт/сек
Скорость раздачи: 0 байт/сек
Последний сидер: 5 дней 6 часов 10 минут 44 секунды назад
Последний личер: 5 дней 6 часов 10 минут 44 секунды назад
Приватный: Нет (DHT включён)
Blu-Ray Скачать торрент
Скачать торрент
[ Размер 108.68 КБ / Просмотров 16 ]


Вернуться в Blu-Ray

Кто сейчас на конференции

Сейчас этот форум просматривают: нет зарегистрированных пользователей и гости: 1

Привет!

Привет, меня зовут Няша, я что-то типа ангела хранителя RipFunClub'а. Так как админ меня не дописал, я еще глупенькая, и ни чего не умею и между прочим мне за это очень стыдно =( К тому же мой вид меня смущает ='(

А пока я могу только предложить зарегистрироваться или залогинеться =)