Главная » ТрекерВидео (кино, ТВ)Художественное кинофильмы (Blu-Ray/BDRip/HD)Blu-Ray
Версия для печати
Бессовестная реклама: на этой странице пока нет =)

Тихоокеанский рубеж / Pacific Rim (2013) BDRemux 1080p

Здесь размещены фильмы в качестве Blu-ray
Правила форума

Сообщение

Тихоокеанский рубеж / Pacific Rim (2013) BDRemux 1080p

Сообщение bambywa » 06 окт 2013, 09:10

Название: Тихоокеанский рубеж
Оригинальное название: Pacific Rim
Год выпуска: 2013
Жанр: Фантастика, фэнтези, боевик, приключения
Выпущено: США, Legendary Pictures
Режиссер: Гильермо дель Торо
В ролях: Чарли Ханнэм, Идрис Эльба, Ринко Кикучи, Чарли Дэй, Роберт Казински, Макс Мартини, Рон Перлман, Клифтон Коллинз мл., Диего Клаттенхофф, Берн Горман

О фильме: Когда из морских глубин поднялись легионы чудовищ, известных как Кайдзу, началась война, которой суждено было забрать миллионы жизней и свести «человеческие ресурсы» почти к нулю всего за несколько лет. Чтобы сражаться с пришельцами, было создано специальное оружие: огромные роботы, названные Джегерами, они управлялись одновременно двумя пилотами, чьи сознания соединены с помощью нейронной связи. Но даже Джегеры оказываются почти бессильны перед лицом безжалостных Кайдзу. На грани поражения у защитников человечества нет выбора, кроме как обратиться к двум весьма сомнительным героям — никому не нужному бывшему пилоту и неопытному стажеру — которые объединились, чтобы повести в бой некогда легендарного, но сейчас устаревшего Джегера. Вместе они оказываются единственной надеждой человечества, последним препятствием перед надвигающимся апокалипсисом.

[Для просмотра изображения необходимо включить JavaScript]

Качество: Blu-Ray Remux (1080p)
Видео: MPEG-4 AVC, 23902 Кбит/с, 1920x1080, 23.976 кадр/с
Аудио: Русский (AC3, 6 ch, 384 Кбит/с), английский (DTS-HD MA, 8 ch, 5461 Кбит/с), (AC3, 2 ch, 192 Кбит/с
Размер: 27.47 ГБ
Продолжительность: 02:11:14
Перевод: Дублированный [любительский дубляж]
Субтитры: Русские, английские
Общее
Уникальный идентификатор : 197062591046863686528226109864491992690 (0x9440DFDF55B77DCE9A9E5C064741C672)
Полное имя : D:Pacific.Rim.2013.1080p.Blu-ray.Remux.AVC.DTS-HD.MA.7.1.mkv
Формат : Matroska
Версия формата : Version 2
Размер файла : 27,5 Гбайт
Продолжительность : 2 ч. 11 м.
Режим общего битрейта : Переменный
Общий поток : 30,0 Мбит/сек
Дата кодирования : UTC 2013-10-06 05:58:02
Программа кодирования : mkvmerge v6.3.0 ('You can't stop me!') built on Jun 28 2013 20:09:41
Библиотека кодирования : libebml v1.3.0 + libmatroska v1.4.0
Видео
Идентификатор : 1
Формат : AVC
Формат/Информация : Advanced Video Codec
Профиль формата : High@L4.1
Параметр CABAC формата : Да
Параметр ReFrames формата : 2 кадра
Параметр GOP формата : M=1, N=10
Идентификатор кодека : V_MPEG4/ISO/AVC
Продолжительность : 2 ч. 11 м.
Вид битрейта : Переменный
Ширина : 1920 пикселей
Высота : 1080 пикселей
Соотношение сторон : 16:9
Режим частоты кадров : Постоянный
Частота кадров : 23,976 кадра/сек
Цветовое пространство : YUV
Субдискретизация насыщенности : 4:2:0
Битовая глубина : 8 бит
Тип развёртки : Прогрессивная
Default : Да
Forced : Нет
Аудио #1
Идентификатор : 2
Формат : AC-3
Формат/Информация : Audio Coding 3
Расширение режима : CM (complete main)
Параметр Endianness формата : Big
Идентификатор кодека : A_AC3
Продолжительность : 2 ч. 11 м.
Вид битрейта : Постоянный
Битрейт : 384 Кбит/сек
Каналы : 6 каналов
Расположение каналов : Front: L C R, Side: L R, LFE
Частота : 48,0 КГц
Битовая глубина : 16 бит
Метод сжатия : С потерями
Размер потока : 361 Мбайт (1%)
Язык : Russian
Default : Да
Forced : Нет
Аудио #2
Идентификатор : 3
Формат : DTS
Формат/Информация : Digital Theater Systems
Профиль формата : MA / Core
Режим : 16
Параметр Endianness формата : Big
Идентификатор кодека : A_DTS
Продолжительность : 2 ч. 11 м.
Вид битрейта : Переменный
Битрейт : Неизвестно / 1509 Кбит/сек
Каналы : 8 каналов / 6 каналов
Расположение каналов : Front: L C R, Side: L R, Back: L R, LFE / Front: L C R, Side: L R, LFE
Частота : 48,0 КГц
Битовая глубина : 24 бит
Метод сжатия : Без потерь / Lossy
Язык : English
Default : Нет
Forced : Нет
Аудио #3
Идентификатор : 4
Формат : AC-3
Формат/Информация : Audio Coding 3
Профиль формата : Dolby Digital
Расширение режима : CM (complete main)
Параметр Endianness формата : Big
Идентификатор кодека : A_AC3
Продолжительность : 2 ч. 11 м.
Вид битрейта : Постоянный
Битрейт : 192 Кбит/сек
Каналы : 2 канала
Расположение каналов : Front: L R
Частота : 48,0 КГц
Битовая глубина : 16 бит
Метод сжатия : С потерями
Размер потока : 180 Мбайт (1%)
Язык : English
Default : Нет
Forced : Нет
Текст #1
Идентификатор : 5
Формат : UTF-8
Идентификатор кодека : S_TEXT/UTF8
Идентификатор кодека/Информация : UTF-8 Plain Text
Язык : Russian
Default : Нет
Forced : Нет
Текст #2
Идентификатор : 6
Формат : PGS
Режим смешивания : zlib
Идентификатор кодека : S_HDMV/PGS
Идентификатор кодека/Информация : The same subtitle format used on BDs/HD-DVDs
Язык : English
Default : Да
Forced : Нет
Меню
00:00:00.000 : en:00:00:00.000
00:09:09.132 : en:00:09:09.132
00:18:35.823 : en:00:18:35.823
00:23:04.341 : en:00:23:04.341
00:33:00.395 : en:00:33:00.395
00:42:44.896 : en:00:42:44.896
00:50:01.665 : en:00:50:01.665
01:01:09.666 : en:01:01:09.666
01:14:45.106 : en:01:14:45.106
01:22:21.311 : en:01:22:21.311
01:32:09.941 : en:01:32:09.941
01:41:55.609 : en:01:41:55.609
01:51:37.858 : en:01:51:37.858
01:59:21.029 : en:01:59:21.029
02:02:17.830 : en:02:02:17.830

Постеры

Автор

Аватара пользователя
bambywa
Релизер
Релизер
 
Раздал: 281.45 МБ
Скачал: 9.51 ГБ
Ратио: 0.029
Сообщения: 1596
Зарегистрирован: 18 апр 2010, 10:45
Репутация: 26


Торрент

Автор: bambywa
Добавлен: 06 окт 2013, 09:10
Размер: 27.47 ГБ
Размер: 29 497 127 045 байт
Сидеров: 268
Личеров: 39
Скачали: 0
Здоровье: 100%
Раздающих: 100%
Статус: Проверен
Изменил: T E K (06 окт 2013, 09:11)
Скорость скачивания: 0 байт/сек
Скорость раздачи: 0 байт/сек
Последний сидер: 5 дней 6 часов 22 минуты 37 секунд назад
Последний личер: 5 дней 6 часов 22 минуты 37 секунд назад
Приватный: Нет (DHT включён)
Blu-Ray Скачать торрент
Скачать торрент
[ Размер 137.8 КБ / Просмотров 50 ]


Вернуться в Blu-Ray

Кто сейчас на конференции

Сейчас этот форум просматривают: нет зарегистрированных пользователей и гости: 1

Привет!

Привет, меня зовут Няша, я что-то типа ангела хранителя RipFunClub'а. Так как админ меня не дописал, я еще глупенькая, и ни чего не умею и между прочим мне за это очень стыдно =( К тому же мой вид меня смущает ='(

А пока я могу только предложить зарегистрироваться или залогинеться =)