Главная » ТрекерВидео (кино, ТВ)Художественное кинофильмы (Blu-Ray/BDRip/HD)Blu-Ray
Версия для печати
Бессовестная реклама: на этой странице пока нет =)

Телекинез / Carrie (2013) BDRemux 1080p | Лицензия‎

Здесь размещены фильмы в качестве Blu-ray
Правила форума

Сообщение

Телекинез / Carrie (2013) BDRemux 1080p | Лицензия‎

Сообщение ayatosem » 04 фев 2014, 10:07

Название: Телекинез
Оригинальное название: Carrie
Год выпуска: 2013
Жанр: Ужасы, драма, экранизация
Выпущено: США, Metro-Goldwyn-Mayer, Screen Gems
Режиссер: Кимберли Пирс
В ролях: Клои Грэйс Моретц, Джулианна Мур, Джуди Грир, Энсел Эльгорт, Портия Даблдэй, Габриэлла Уайлд, Коннор Прайс, Алекс Расселл, Мишель Нолден, Макс Топплин, Синтия Престон

О фильме: Очередная экранизация одноименного романа Стивена Кинга. Застенчивая Кэрри Уайт живет вместе с матерью — набожной пуританкой Маргарет. Девушка страдает от издевательств одноклассников и от воспитания строгой матери. Постепенно она открывает в себе способности к телекинезу. Одноклассники готовят на выпускной грандиозную шутку над Кэрри, но не представляют, чем она обернется.

[Для просмотра изображения необходимо включить JavaScript]

Качество: Blu-Ray Remux (1080p)
Видео: MPEG-4 AVC, 27936 Кбит/c, 1920x1080
Аудио: Русский (DTS, 6 ch, 768 Кбит/с,) (AC3, 6 ch, 640 Кбит/с), украинский (AC3, 6 ch, 448 Кбит/с), английский (DTS-HD MA, 6 ch, 3697 Кбит/с)
Размер: 23.13 ГБ
Продолжительность: 01:39:41
Перевод: Дублированный [лицензия]
Субтитры: Русские, украинские
Общее
Уникальный идентификатор : 199051365619690028539112644086981697326 (0x95BFE6077DDBDEF79F4F4A4539A39F2E)
Полное имя : C:Carrie.2013.D.BDRemux.1080p.mkv
Формат : Matroska
Версия формата : Version 2
Размер файла : 23,1 Гбайт
Продолжительность : 1 ч. 39 м.
Режим общего битрейта : Переменный
Общий поток : 33,2 Мбит/сек
Название фильма : by bog347
Дата кодирования : UTC 2014-02-04 03:26:24
Программа кодирования : mkvmerge v6.7.0 ('Back to the Ground') 32bit built on Jan 8 2014 15:03:17
Библиотека кодирования : libebml v1.3.0 + libmatroska v1.4.1
Видео
Идентификатор : 1
Формат : AVC
Формат/Информация : Advanced Video Codec
Профиль формата : High@L4.1
Параметр CABAC формата : Да
Параметр ReFrames формата : 4 кадра
Идентификатор кодека : V_MPEG4/ISO/AVC
Продолжительность : 1 ч. 39 м.
Вид битрейта : Переменный
Максимальный битрейт : 30,0 Мбит/сек
Ширина : 1920 пикселей
Высота : 1080 пикселей
Соотношение сторон : 16:9
Режим частоты кадров : Постоянный
Частота кадров : 23,976 кадра/сек
Цветовое пространство : YUV
Субдискретизация насыщенности : 4:2:0
Битовая глубина : 8 бит
Тип развёртки : Прогрессивная
Язык : Russian
Default : Нет
Forced : Нет
Аудио #1
Идентификатор : 2
Формат : DTS
Формат/Информация : Digital Theater Systems
Режим : 16
Параметр Endianness формата : Big
Идентификатор кодека : A_DTS
Продолжительность : 1 ч. 39 м.
Вид битрейта : Постоянный
Битрейт : 768 Кбит/сек
Каналы : 6 каналов
Расположение каналов : Front: L C R, Side: L R, LFE
Частота : 48,0 КГц
Битовая глубина : 24 бит
Метод сжатия : С потерями
Размер потока : 548 Мбайт (2%)
Язык : Russian
Default : Да
Forced : Нет
Аудио #2
Идентификатор : 3
Формат : AC-3
Формат/Информация : Audio Coding 3
Расширение режима : CM (complete main)
Параметр Endianness формата : Big
Идентификатор кодека : A_AC3
Продолжительность : 1 ч. 39 м.
Вид битрейта : Постоянный
Битрейт : 640 Кбит/сек
Каналы : 6 каналов
Расположение каналов : Front: L C R, Side: L R, LFE
Частота : 48,0 КГц
Битовая глубина : 16 бит
Метод сжатия : С потерями
Размер потока : 456 Мбайт (2%)
Язык : Russian
Default : Нет
Forced : Нет
Аудио #3
Идентификатор : 4
Формат : AC-3
Формат/Информация : Audio Coding 3
Расширение режима : CM (complete main)
Параметр Endianness формата : Big
Идентификатор кодека : A_AC3
Продолжительность : 1 ч. 39 м.
Вид битрейта : Постоянный
Битрейт : 448 Кбит/сек
Каналы : 6 каналов
Расположение каналов : Front: L C R, Side: L R, LFE
Частота : 48,0 КГц
Битовая глубина : 16 бит
Метод сжатия : С потерями
Размер потока : 319 Мбайт (1%)
Язык : Ukrainian
Default : Нет
Forced : Нет
Аудио #4
Идентификатор : 5
Формат : DTS
Формат/Информация : Digital Theater Systems
Профиль формата : MA / Core
Режим : 16
Параметр Endianness формата : Big
Идентификатор кодека : A_DTS
Продолжительность : 1 ч. 39 м.
Вид битрейта : Переменный
Битрейт : Неизвестно / 1509 Кбит/сек
Каналы : 6 каналов
Расположение каналов : Front: L C R, Side: L R, LFE
Частота : 48,0 КГц
Битовая глубина : 24 бит
Метод сжатия : Без потерь / Lossy
Язык : English
Default : Нет
Forced : Нет
Текст #1
Идентификатор : 6
Формат : UTF-8
Идентификатор кодека : S_TEXT/UTF8
Идентификатор кодека/Информация : UTF-8 Plain Text
Заголовок : Forced
Язык : Russian
Default : Да
Forced : Нет
Текст #2
Идентификатор : 7
Формат : UTF-8
Идентификатор кодека : S_TEXT/UTF8
Идентификатор кодека/Информация : UTF-8 Plain Text
Язык : Russian
Default : Нет
Forced : Нет
Текст #3
Идентификатор : 8
Формат : UTF-8
Идентификатор кодека : S_TEXT/UTF8
Идентификатор кодека/Информация : UTF-8 Plain Text
Заголовок : Forced
Язык : Ukrainian
Default : Нет
Forced : Нет
Текст #4
Идентификатор : 9
Формат : UTF-8
Идентификатор кодека : S_TEXT/UTF8
Идентификатор кодека/Информация : UTF-8 Plain Text
Язык : Ukrainian
Default : Нет
Forced : Нет
Меню
00:00:00.000 : en:00:00:00.000
00:04:14.546 : en:00:04:14.546
00:06:37.856 : en:00:06:37.856
00:10:07.649 : en:00:10:07.649
00:12:03.681 : en:00:12:03.681
00:14:46.177 : en:00:14:46.177
00:18:50.463 : en:00:18:50.463
00:23:15.060 : en:00:23:15.060
00:26:51.401 : en:00:26:51.401
00:30:50.974 : en:00:30:50.974
00:32:27.863 : en:00:32:27.863
00:36:18.093 : en:00:36:18.093
00:38:20.340 : en:00:38:20.340
00:41:47.755 : en:00:41:47.755
00:46:22.196 : en:00:46:22.196
00:51:01.850 : en:00:51:01.850
00:53:09.853 : en:00:53:09.853
00:55:47.678 : en:00:55:47.678
01:00:52.065 : en:01:00:52.065
01:04:02.338 : en:01:04:02.338
01:07:03.311 : en:01:07:03.311
01:09:38.383 : en:01:09:38.383
01:13:05.381 : en:01:13:05.381
01:18:25.159 : en:01:18:25.159
01:22:46.712 : en:01:22:46.712
01:25:17.863 : en:01:25:17.863
01:29:25.360 : en:01:29:25.360
01:33:36.402 : en:01:33:36.402


phpBB [media]

Постеры

Автор

Аватара пользователя
ayatosem
Релизер
Релизер
 
Раздал: 10.55 ГБ
Скачал: 5.8 ГБ
Ратио: 1.820
Сообщения: 2358
Зарегистрирован: 10 май 2010, 10:09
Репутация: 22


Торрент

Автор: ayatosem
Добавлен: 04 фев 2014, 10:07
Размер: 23.13 ГБ
Размер: 24 835 652 559 байт
Сидеров: 14
Личеров: 3
Скачали: 0
Здоровье: 100%
Статус: Проверен
Изменил: T E K (04 фев 2014, 10:10)
Скорость скачивания: 0 байт/сек
Скорость раздачи: 0 байт/сек
Последний сидер: 1 день 6 часов 21 минуту 57 секунд назад
Последний личер: 1 день 6 часов 21 минуту 57 секунд назад
Приватный: Нет (DHT включён)
Blu-Ray Скачать торрент
Скачать торрент
[ Размер 116.16 КБ / Просмотров 7 ]


Вернуться в Blu-Ray

Кто сейчас на конференции

Сейчас этот форум просматривают: AhrefsBot [BOT] и гости: 1

Привет!

Привет, меня зовут Няша, я что-то типа ангела хранителя RipFunClub'а. Так как админ меня не дописал, я еще глупенькая, и ни чего не умею и между прочим мне за это очень стыдно =( К тому же мой вид меня смущает ='(

А пока я могу только предложить зарегистрироваться или залогинеться =)