Главная » ТрекерВидео (кино, ТВ)Художественное кинофильмы (Blu-Ray/BDRip/HD)Blu-Ray
Версия для печати
Бессовестная реклама: на этой странице пока нет =)

Меланхолия / Melancholia (2011) Blu-Ray

Здесь размещены фильмы в качестве Blu-ray
Правила форума

Сообщение

Меланхолия / Melancholia (2011) Blu-Ray

Сообщение Yoshkinkot » 21 ноя 2011, 15:50

Название: Меланхолия
Оригинальное название: Melancholia
Год выхода: 2011
Жанр: фантастика / драма
Режиссер: Ларс фон Триер
В ролях: Кирстен Данст, Шарлотта Генсбур, Кифер Сазерленд, Шарлотта Рэмплинг, Джон Хёрт, Александр Скарсгард, Стеллан Скарсгард, Брэйди Корбет, Удо Кир, Джеймс Кэгнард.

О фильме:Свадебная вечеринка оборачивается катастрофой вселенского масштаба: обнаруживается, что на Землю надвигается планета под названием Меланхолия. С каждым часом она все ближе, и шансов на выживание у человечества все меньше…

Выпущено: Германия, Дания, Швеция, Франция
Продолжительность: 02:09:53
Озвучивание: Профессиональное (многоголосое) [лицензия]

Формат: BDMV
Качество: Blu-Ray
Видео: MPEG-4 AVC Video / 27981 kbps / 1920х1080i / 25 fps / 16:9 / High Profile 4.1
Audio 1: English / DTS-HD Master Audio / 5.1 / 48 kHz / 3144 kbps / 24-bit (DTS Core: 5.1 / 48 kHz / 1509 kbps / 24-bit)
Audio 2: Russian / Dolby Digital Audio / 5.1 / 48 kHz / 448 kbps
Audio 3: English / Dolby Digital Audio / 2.0 / 48 kHz / 448 kbps
Субтитры: Danish, Norwegian, Russian
Disc Title: Melancholia.BlueBird-HD
Disc Size: 39 514 597 760 bytes
Protection: AACS
BD-Java: No
BDInfo: 0.5.2

Notes:

BDINFO HOME AND REPORTS SUBMISSION:
Cinema Squid
http://www.cinemasquid.com/Tools.aspx

INCLUDES FORUMS REPORT FOR:
Unofficial Blu-ray Audio and Video Specifications Thread
http://www.avsforum.com/avs-vb/showthread.php?t=760714
http://forum.blu-ray.com/showthread.php?t=3338

********************
PLAYLIST: 00001.MPLS
********************


Код:
Total Video
Title Codec Length Movie Size Disc Size Bitrate Bitrate Main Audio Track Secondary Audio Track
----- ------ ------- -------------- -------------- ------- ------- ------------------ ---------------------
00001.MPLS AVC 2:09:53 32 941 744 128 39 514 597 760 33,82 27,98 DTS-HD Master 5.1 3144Kbps (48kHz/24-bit)
Код:
DISC INFO:

Disc Title: Melancholia.BlueBird-HD
Disc Size: 39 514 597 760 bytes
Protection: AACS
BD-Java: No
BDInfo: 0.5.2

PLAYLIST REPORT:

Name: 00001.MPLS
Size: 32 941 744 128 bytes
Length: 2:09:53 (h:m:s)
Total Bitrate: 33,82 Mbps
Deion:

VIDEO:

Codec Bitrate Deion
----- ------- -----------
MPEG-4 AVC Video 27981 kbps 1080i / 25 fps / 16:9 / High Profile 4.1

AUDIO:

Codec Language Bitrate Deion
----- -------- ------- -----------
DTS-HD Master Audio English 3144 kbps 5.1 / 48 kHz / 3144 kbps / 24-bit (DTS Core: 5.1 / 48 kHz / 1509 kbps / 24-bit)
Dolby Digital Audio Russian 448 kbps 5.1 / 48 kHz / 448 kbps
Dolby Digital Audio English 448 kbps 2.0 / 48 kHz / 448 kbps

SUBTITLES:

Codec Language Bitrate Deion
----- -------- ------- -----------
Presentation Graphics Danish 15,690 kbps
Presentation Graphics Norwegian 15,106 kbps
Presentation Graphics Russian 11,733 kbps
Presentation Graphics Russian 0,007 kbps

FILES:

Name Time In Length Size Total Bitrate
---- ------- ------ ---- -------------
00004.M2TS 0:00:00.000 2:09:53.040 32 941 744 128 33 817

CHAPTERS:

Number Time In Length Avg Video Rate Max 1-Sec Rate Max 1-Sec Time Max 5-Sec Rate Max 5-Sec Time Max 10Sec Rate Max 10Sec Time Avg Frame Size Max Frame Size Max Frame Time
------ ------- ------ -------------- -------------- -------------- -------------- -------------- -------------- -------------- -------------- -------------- --------------
1 0:00:00.000 0:08:13.680 24 714 kbps 63 730 kbps 00:07:36.839 38 962 kbps 00:07:36.359 35 418 kbps 00:01:45.519 123 560 bytes 674 059 bytes 00:08:08.440
2 0:08:13.680 0:15:56.120 31 654 kbps 63 426 kbps 00:08:20.640 40 169 kbps 00:23:07.119 36 947 kbps 00:23:07.120 158 270 bytes 697 811 bytes 00:08:20.680
3 0:24:09.800 0:09:20.520 30 545 kbps 54 598 kbps 00:27:54.560 36 660 kbps 00:27:54.560 35 384 kbps 00:26:07.440 152 724 bytes 501 216 bytes 00:27:54.600
4 0:33:30.320 0:11:33.119 32 485 kbps 42 375 kbps 00:38:47.760 36 843 kbps 00:38:46.719 35 768 kbps 00:38:47.040 162 423 bytes 458 704 bytes 00:39:17.840
5 0:45:03.440 0:08:05.520 31 959 kbps 56 687 kbps 00:49:34.840 37 445 kbps 00:49:33.880 35 167 kbps 00:49:34.360 159 796 bytes 665 108 bytes 00:49:35.360
6 0:53:08.960 0:10:17.279 32 606 kbps 38 921 kbps 01:02:31.080 34 729 kbps 01:03:10.600 34 344 kbps 01:00:08.320 163 028 bytes 457 624 bytes 01:02:31.120
7 1:03:26.240 0:16:37.040 26 686 kbps 57 988 kbps 01:15:23.240 39 918 kbps 01:11:09.880 36 794 kbps 01:15:23.240 133 428 bytes 615 300 bytes 01:15:23.760
8 1:20:03.280 0:13:41.280 28 414 kbps 56 972 kbps 01:21:31.520 40 569 kbps 01:20:19.160 37 346 kbps 01:20:19.160 142 072 bytes 536 184 bytes 01:28:51.000
9 1:33:44.560 0:14:11.639 26 880 kbps 49 244 kbps 01:41:21.439 40 269 kbps 01:36:38.479 37 592 kbps 01:36:38.480 134 401 bytes 446 783 bytes 01:44:24.160
10 1:47:56.200 0:09:32.640 26 586 kbps 58 379 kbps 01:54:06.920 40 613 kbps 01:54:06.920 37 235 kbps 01:51:58.720 132 931 bytes 617 618 bytes 01:54:06.960
11 1:57:28.840 0:06:19.439 29 552 kbps 61 374 kbps 01:57:28.840 38 000 kbps 02:02:30.760 36 116 kbps 02:02:29.920 147 761 bytes 595 377 bytes 01:57:29.320
12 2:03:48.280 0:06:04.760 2 840 kbps 7 262 kbps 02:09:25.400 5 471 kbps 02:09:24.920 5 093 kbps 02:09:23.120 14 203 bytes 234 323 bytes 02:09:28.800

STREAM DIAGNOSTICS:

File PID Type Codec Language Seconds Bitrate Bytes Packets
---- --- ---- ----- -------- -------------- -------------- ------------- -----
00004.M2TS 4113 (0x1011) 0x1B AVC 7792,920 27 981 27 256 837 196 148 347 868
00004.M2TS 4352 (0x1100) 0x86 DTS-HD MA eng (English) 7792,920 3 144 3 062 377 224 17 851 567
00004.M2TS 4353 (0x1101) 0x81 AC3 eng (English) 7792,920 448 436 393 216 2 435 230
00004.M2TS 4354 (0x1102) 0x81 AC3 rus (Russian) 7792,920 448 436 380 672 2 435 160
00004.M2TS 4608 (0x1200) 0x90 PGS dan (Danish) 7792,920 16 15 283 872 88 025
00004.M2TS 4609 (0x1201) 0x90 PGS nor (Norwegian) 7792,920 15 14 715 645 85 336
00004.M2TS 4610 (0x1202) 0x90 PGS rus (Russian) 7792,920 12 11 429 095 67 257
00004.M2TS 4611 (0x1203) 0x90 PGS rus (Russian) 7792,920 0 6 770 44


QUICK SUMMARY:

Disc Title: Melancholia.BlueBird-HD
Disc Size: 39 514 597 760 bytes
Protection: AACS
BD-Java: No
Playlist: 00001.MPLS
Size: 32 941 744 128 bytes
Length: 2:09:53
Total Bitrate: 33,82 Mbps
Video: MPEG-4 AVC Video / 27981 kbps / 1080i / 25 fps / 16:9 / High Profile 4.1
Audio: English / DTS-HD Master Audio / 5.1 / 48 kHz / 3144 kbps / 24-bit (DTS Core: 5.1 / 48 kHz / 1509 kbps / 24-bit)
Audio: Russian / Dolby Digital Audio / 5.1 / 48 kHz / 448 kbps
Audio: English / Dolby Digital Audio / 2.0 / 48 kHz / 448 kbps
Subtitle: Danish / 15,690 kbps
Subtitle: Norwegian / 15,106 kbps
Subtitle: Russian / 11,733 kbps
Subtitle: Russian / 0,007 kbps

********************
PLAYLIST: 00010.MPLS
********************


Код:
Total Video
Title Codec Length Movie Size Disc Size Bitrate Bitrate Main Audio Track Secondary Audio Track
----- ------ ------- -------------- -------------- ------- ------- ------------------ ---------------------
00010.MPLS AVC 0:11:28 2 314 131 456 39 514 597 760 26,90 25,00 DD AC3 2.0 640Kbps
Код:
DISC INFO:

Disc Title: Melancholia.BlueBird-HD
Disc Size: 39 514 597 760 bytes
Protection: AACS
BD-Java: No
BDInfo: 0.5.2

PLAYLIST REPORT:

Name: 00010.MPLS
Size: 2 314 131 456 bytes
Length: 0:11:28 (h:m:s)
Total Bitrate: 26,90 Mbps
Deion:

VIDEO:

Codec Bitrate Deion
----- ------- -----------
MPEG-4 AVC Video 24999 kbps 1080i / 25 fps / 16:9 / High Profile 4.1

AUDIO:

Codec Language Bitrate Deion
----- -------- ------- -----------
Dolby Digital Audio English 640 kbps 2.0 / 48 kHz / 640 kbps

FILES:

Name Time In Length Size Total Bitrate
---- ------- ------ ---- -------------
00015.M2TS 0:00:00.000 0:11:28.240 2 314 131 456 26 899

CHAPTERS:

Number Time In Length Avg Video Rate Max 1-Sec Rate Max 1-Sec Time Max 5-Sec Rate Max 5-Sec Time Max 10Sec Rate Max 10Sec Time Avg Frame Size Max Frame Size Max Frame Time
------ ------- ------ -------------- -------------- -------------- -------------- -------------- -------------- -------------- -------------- -------------- --------------
1 0:00:00.000 0:11:28.240 24 999 kbps 44 198 kbps 00:03:01.039 38 032 kbps 00:03:00.960 36 936 kbps 00:02:57.240 124 994 bytes 531 742 bytes 00:03:02.039

STREAM DIAGNOSTICS:

File PID Type Codec Language Seconds Bitrate Bytes Packets
---- --- ---- ----- -------- -------------- -------------- ------------- -----
00015.M2TS 4113 (0x1011) 0x1B AVC 688,120 25 003 2 150 639 226 11 707 050
00015.M2TS 4352 (0x1100) 0x81 AC3 eng (English) 688,120 640 55 060 480 322 620


QUICK SUMMARY:

Disc Title: Melancholia.BlueBird-HD
Disc Size: 39 514 597 760 bytes
Protection: AACS
BD-Java: No
Playlist: 00010.MPLS
Size: 2 314 131 456 bytes
Length: 0:11:28
Total Bitrate: 26,90 Mbps
Video: MPEG-4 AVC Video / 24999 kbps / 1080i / 25 fps / 16:9 / High Profile 4.1
Audio: English / Dolby Digital Audio / 2.0 / 48 kHz / 640 kbps

********************
PLAYLIST: 00012.MPLS
********************


Код:
Total Video
Title Codec Length Movie Size Disc Size Bitrate Bitrate Main Audio Track Secondary Audio Track
----- ------ ------- -------------- -------------- ------- ------- ------------------ ---------------------
00012.MPLS AVC 0:09:31 1 918 304 256 39 514 597 760 26,86 24,96 DD AC3 2.0 640Kbps
Код:
DISC INFO:

Disc Title: Melancholia.BlueBird-HD
Disc Size: 39 514 597 760 bytes
Protection: AACS
BD-Java: No
BDInfo: 0.5.2

PLAYLIST REPORT:

Name: 00012.MPLS
Size: 1 918 304 256 bytes
Length: 0:09:31 (h:m:s)
Total Bitrate: 26,86 Mbps
Deion:

VIDEO:

Codec Bitrate Deion
----- ------- -----------
MPEG-4 AVC Video 24957 kbps 1080i / 25 fps / 16:9 / High Profile 4.1

AUDIO:

Codec Language Bitrate Deion
----- -------- ------- -----------
Dolby Digital Audio English 640 kbps 2.0 / 48 kHz / 640 kbps

FILES:

Name Time In Length Size Total Bitrate
---- ------- ------ ---- -------------
00017.M2TS 0:00:00.000 0:09:31.440 1 918 304 256 26 856

CHAPTERS:

Number Time In Length Avg Video Rate Max 1-Sec Rate Max 1-Sec Time Max 5-Sec Rate Max 5-Sec Time Max 10Sec Rate Max 10Sec Time Avg Frame Size Max Frame Size Max Frame Time
------ ------- ------ -------------- -------------- -------------- -------------- -------------- -------------- -------------- -------------- -------------- --------------
1 0:00:00.000 0:09:31.440 24 957 kbps 59 537 kbps 00:05:08.880 39 170 kbps 00:05:08.880 37 651 kbps 00:02:48.760 124 786 bytes 637 720 bytes 00:01:40.880

STREAM DIAGNOSTICS:

File PID Type Codec Language Seconds Bitrate Bytes Packets
---- --- ---- ----- -------- -------------- -------------- ------------- -----
00017.M2TS 4113 (0x1011) 0x1B AVC 571,360 24 961 1 782 686 416 9 704 118
00017.M2TS 4352 (0x1100) 0x81 AC3 eng (English) 571,360 640 45 716 480 267 870


QUICK SUMMARY:

Disc Title: Melancholia.BlueBird-HD
Disc Size: 39 514 597 760 bytes
Protection: AACS
BD-Java: No
Playlist: 00012.MPLS
Size: 1 918 304 256 bytes
Length: 0:09:31
Total Bitrate: 26,86 Mbps
Video: MPEG-4 AVC Video / 24957 kbps / 1080i / 25 fps / 16:9 / High Profile 4.1
Audio: English / Dolby Digital Audio / 2.0 / 48 kHz / 640 kbps

********************
PLAYLIST: 00013.MPLS
********************


Код:
Total Video
Title Codec Length Movie Size Disc Size Bitrate Bitrate Main Audio Track Secondary Audio Track
----- ------ ------- -------------- -------------- ------- ------- ------------------ ---------------------
00013.MPLS AVC 0:06:42 1 267 391 232 39 514 597 760 25,20 23,39 DD AC3 2.0 640Kbps
Код:
DISC INFO:

Disc Title: Melancholia.BlueBird-HD
Disc Size: 39 514 597 760 bytes
Protection: AACS
BD-Java: No
BDInfo: 0.5.2

PLAYLIST REPORT:

Name: 00013.MPLS
Size: 1 267 391 232 bytes
Length: 0:06:42 (h:m:s)
Total Bitrate: 25,20 Mbps
Deion:

VIDEO:

Codec Bitrate Deion
----- ------- -----------
MPEG-4 AVC Video 23388 kbps 1080i / 25 fps / 16:9 / High Profile 4.1

AUDIO:

Codec Language Bitrate Deion
----- -------- ------- -----------
Dolby Digital Audio English 640 kbps 2.0 / 48 kHz / 640 kbps

FILES:

Name Time In Length Size Total Bitrate
---- ------- ------ ---- -------------
00018.M2TS 0:00:00.000 0:06:42.320 1 267 391 232 25 199

CHAPTERS:

Number Time In Length Avg Video Rate Max 1-Sec Rate Max 1-Sec Time Max 5-Sec Rate Max 5-Sec Time Max 10Sec Rate Max 10Sec Time Avg Frame Size Max Frame Size Max Frame Time
------ ------- ------ -------------- -------------- -------------- -------------- -------------- -------------- -------------- -------------- -------------- --------------
1 0:00:00.000 0:06:42.320 23 399 kbps 61 658 kbps 00:03:50.840 40 272 kbps 00:04:38.720 36 888 kbps 00:01:12.160 116 995 bytes 665 154 bytes 00:04:41.279

STREAM DIAGNOSTICS:

File PID Type Codec Language Seconds Bitrate Bytes Packets
---- --- ---- ----- -------- -------------- -------------- ------------- -----
00018.M2TS 4113 (0x1011) 0x1B AVC 402,240 23 404 1 176 735 127 6 401 355
00018.M2TS 4352 (0x1100) 0x81 AC3 eng (English) 402,240 640 32 186 880 188 595


QUICK SUMMARY:

Disc Title: Melancholia.BlueBird-HD
Disc Size: 39 514 597 760 bytes
Protection: AACS
BD-Java: No
Playlist: 00013.MPLS
Size: 1 267 391 232 bytes
Length: 0:06:42
Total Bitrate: 25,20 Mbps
Video: MPEG-4 AVC Video / 23388 kbps / 1080i / 25 fps / 16:9 / High Profile 4.1
Audio: English / Dolby Digital Audio / 2.0 / 48 kHz / 640 kbps

********************
PLAYLIST: 00011.MPLS
********************


Код:
Total Video
Title Codec Length Movie Size Disc Size Bitrate Bitrate Main Audio Track Secondary Audio Track
----- ------ ------- -------------- -------------- ------- ------- ------------------ ---------------------
00011.MPLS AVC 0:04:09 786 905 088 39 514 597 760 25,22 23,39 DD AC3 2.0 640Kbps
Код:
DISC INFO:

Disc Title: Melancholia.BlueBird-HD
Disc Size: 39 514 597 760 bytes
Protection: AACS
BD-Java: No
BDInfo: 0.5.2

PLAYLIST REPORT:

Name: 00011.MPLS
Size: 786 905 088 bytes
Length: 0:04:09 (h:m:s)
Total Bitrate: 25,22 Mbps
Deion:

VIDEO:

Codec Bitrate Deion
----- ------- -----------
MPEG-4 AVC Video 23391 kbps 1080i / 25 fps / 16:9 / High Profile 4.1

AUDIO:

Codec Language Bitrate Deion
----- -------- ------- -----------
Dolby Digital Audio English 640 kbps 2.0 / 48 kHz / 640 kbps

FILES:

Name Time In Length Size Total Bitrate
---- ------- ------ ---- -------------
00016.M2TS 0:00:00.000 0:04:09.600 786 905 088 25 221

CHAPTERS:

Number Time In Length Avg Video Rate Max 1-Sec Rate Max 1-Sec Time Max 5-Sec Rate Max 5-Sec Time Max 10Sec Rate Max 10Sec Time Avg Frame Size Max Frame Size Max Frame Time
------ ------- ------ -------------- -------------- -------------- -------------- -------------- -------------- -------------- -------------- -------------- --------------
1 0:00:00.000 0:04:09.600 23 391 kbps 55 104 kbps 00:03:17.519 40 420 kbps 00:01:45.679 33 882 kbps 00:03:14.840 116 954 bytes 431 386 bytes 00:00:17.279

STREAM DIAGNOSTICS:

File PID Type Codec Language Seconds Bitrate Bytes Packets
---- --- ---- ----- -------- -------------- -------------- ------------- -----
00016.M2TS 4113 (0x1011) 0x1B AVC 249,480 23 402 729 793 659 3 973 046
00016.M2TS 4352 (0x1100) 0x81 AC3 eng (English) 249,480 640 19 968 000 117 000


QUICK SUMMARY:

Disc Title: Melancholia.BlueBird-HD
Disc Size: 39 514 597 760 bytes
Protection: AACS
BD-Java: No
Playlist: 00011.MPLS
Size: 786 905 088 bytes
Length: 0:04:09
Total Bitrate: 25,22 Mbps
Video: MPEG-4 AVC Video / 23391 kbps / 1080i / 25 fps / 16:9 / High Profile 4.1
Audio: English / Dolby Digital Audio / 2.0 / 48 kHz / 640 kbps

********************
PLAYLIST: 00009.MPLS
********************


Код:
Total Video
Title Codec Length Movie Size Disc Size Bitrate Bitrate Main Audio Track Secondary Audio Track
----- ------ ------- -------------- -------------- ------- ------- ------------------ ---------------------
00009.MPLS AVC 0:01:57 164 968 896 39 514 597 760 11,24 10,04 DD AC3 2.0 448Kbps
Код:
DISC INFO:

Disc Title: Melancholia.BlueBird-HD
Disc Size: 39 514 597 760 bytes
Protection: AACS
BD-Java: No
BDInfo: 0.5.2

PLAYLIST REPORT:

Name: 00009.MPLS
Size: 164 968 896 bytes
Length: 0:01:57 (h:m:s)
Total Bitrate: 11,24 Mbps
Deion:

VIDEO:

Codec Bitrate Deion
----- ------- -----------
MPEG-4 AVC Video 10038 kbps 1080i / 25 fps / 16:9 / High Profile 4.1

AUDIO:

Codec Language Bitrate Deion
----- -------- ------- -----------
Dolby Digital Audio English 448 kbps 2.0 / 48 kHz / 448 kbps

SUBTITLES:

Codec Language Bitrate Deion
----- -------- ------- -----------
Presentation Graphics Danish 51,654 kbps
Presentation Graphics Finnish 42,642 kbps
Presentation Graphics Norwegian 46,896 kbps
Presentation Graphics Swedish 48,019 kbps

FILES:

Name Time In Length Size Total Bitrate
---- ------- ------ ---- -------------
00014.M2TS 0:00:00.000 0:01:57.399 164 968 896 11 238

CHAPTERS:

Number Time In Length Avg Video Rate Max 1-Sec Rate Max 1-Sec Time Max 5-Sec Rate Max 5-Sec Time Max 10Sec Rate Max 10Sec Time Avg Frame Size Max Frame Size Max Frame Time
------ ------- ------ -------------- -------------- -------------- -------------- -------------- -------------- -------------- -------------- -------------- --------------
1 0:00:00.000 0:01:57.399 10 042 kbps 30 016 kbps 00:01:42.200 21 588 kbps 00:01:40.759 16 011 kbps 00:00:25.200 50 210 bytes 508 613 bytes 00:01:00.799

STREAM DIAGNOSTICS:

File PID Type Codec Language Seconds Bitrate Bytes Packets
---- --- ---- ----- -------- -------------- -------------- ------------- -----
00014.M2TS 4113 (0x1011) 0x1B AVC 117,320 10 049 147 364 999 802 702
00014.M2TS 4352 (0x1100) 0x81 AC3 eng (English) 117,320 448 6 574 848 36 690
00014.M2TS 4608 (0x1200) 0x90 PGS dan (Danish) 117,320 52 758 281 4 309
00014.M2TS 4609 (0x1201) 0x90 PGS nor (Norwegian) 117,320 47 688 427 3 932
00014.M2TS 4610 (0x1202) 0x90 PGS swe (Swedish) 117,320 48 704 926 4 027
00014.M2TS 4611 (0x1203) 0x90 PGS fin (Finnish) 117,320 43 625 990 3 598


QUICK SUMMARY:

Disc Title: Melancholia.BlueBird-HD
Disc Size: 39 514 597 760 bytes
Protection: AACS
BD-Java: No
Playlist: 00009.MPLS
Size: 164 968 896 bytes
Length: 0:01:57
Total Bitrate: 11,24 Mbps
Video: MPEG-4 AVC Video / 10038 kbps / 1080i / 25 fps / 16:9 / High Profile 4.1
Audio: English / Dolby Digital Audio / 2.0 / 48 kHz / 448 kbps
Subtitle: Danish / 51,654 kbps
Subtitle: Finnish / 42,642 kbps
Subtitle: Norwegian / 46,896 kbps
Subtitle: Swedish / 48,019 kbps

********************
PLAYLIST: 00000.MPLS
********************


Код:
Total Video
Title Codec Length Movie Size Disc Size Bitrate Bitrate Main Audio Track Secondary Audio Track
----- ------ ------- -------------- -------------- ------- ------- ------------------ ---------------------
00000.MPLS AVC 0:00:19 8 982 528 39 514 597 760 3,71 3,02 DD AC3 5.1 640Kbps
Код:
DISC INFO:

Disc Title: Melancholia.BlueBird-HD
Disc Size: 39 514 597 760 bytes
Protection: AACS
BD-Java: No
BDInfo: 0.5.2

PLAYLIST REPORT:

Name: 00000.MPLS
Size: 8 982 528 bytes
Length: 0:00:19 (h:m:s)
Total Bitrate: 3,71 Mbps
Deion:

VIDEO:

Codec Bitrate Deion
----- ------- -----------
MPEG-4 AVC Video 3019 kbps 1080i / 25 fps / 16:9 / High Profile 4.1

AUDIO:

Codec Language Bitrate Deion
----- -------- ------- -----------
Dolby Digital Audio English 640 kbps 5.1 / 48 kHz / 640 kbps

SUBTITLES:

Codec Language Bitrate Deion
----- -------- ------- -----------
Presentation Graphics English 5,660 kbps

FILES:

Name Time In Length Size Total Bitrate
---- ------- ------ ---- -------------
00003.M2TS 0:00:00.000 0:00:03.000 73 728 197
00001.M2TS 0:00:03.000 0:00:04.000 294 912 590
00000.M2TS 0:00:07.000 0:00:12.360 8 613 888 5 575

CHAPTERS:

Number Time In Length Avg Video Rate Max 1-Sec Rate Max 1-Sec Time Max 5-Sec Rate Max 5-Sec Time Max 10Sec Rate Max 10Sec Time Avg Frame Size Max Frame Size Max Frame Time
------ ------- ------ -------------- -------------- -------------- -------------- -------------- -------------- -------------- -------------- -------------- --------------
1 0:00:00.000 0:00:19.360 3 019 kbps 16 618 kbps 00:00:08.039 8 335 kbps 00:00:06.960 5 346 kbps 00:00:06.960 15 096 bytes 310 751 bytes 00:00:09.519

STREAM DIAGNOSTICS:

File PID Type Codec Language Seconds Bitrate Bytes Packets
---- --- ---- ----- -------- -------------- -------------- ------------- -----
00003.M2TS 4113 (0x1011) 0x1B AVC 2,880 113 40 585 280
00001.M2TS 4113 (0x1011) 0x1B AVC 3,840 501 240 627 1 384
00000.M2TS 4113 (0x1011) 0x1B AVC 12,240 4 592 7 025 465 38 558
00000.M2TS 4352 (0x1100) 0x81 AC3 eng (English) 12,240 644 985 600 5 775
00000.M2TS 4608 (0x1200) 0x90 PGS eng (English) 12,240 9 13 697 82


QUICK SUMMARY:

Disc Title: Melancholia.BlueBird-HD
Disc Size: 39 514 597 760 bytes
Protection: AACS
BD-Java: No
Playlist: 00000.MPLS
Size: 8 982 528 bytes
Length: 0:00:19
Total Bitrate: 3,71 Mbps
Video: MPEG-4 AVC Video / 3019 kbps / 1080i / 25 fps / 16:9 / High Profile 4.1
Audio: English / Dolby Digital Audio / 5.1 / 48 kHz / 640 kbps
Subtitle: English / 5,660 kbps

********************
PLAYLIST: 00004.MPLS
********************


Код:
Total Video
Title Codec Length Movie Size Disc Size Bitrate Bitrate Main Audio Track Secondary Audio Track
----- ------ ------- -------------- -------------- ------- ------- ------------------ ---------------------
00004.MPLS AVC 0:00:12 6 619 584 39 514 597 760 4,22 3,72 DD AC3 2.0 192Kbps
Код:
DISC INFO:

Disc Title: Melancholia.BlueBird-HD
Disc Size: 39 514 597 760 bytes
Protection: AACS
BD-Java: No
BDInfo: 0.5.2

PLAYLIST REPORT:

Name: 00004.MPLS
Size: 6 619 584 bytes
Length: 0:00:12 (h:m:s)
Total Bitrate: 4,22 Mbps
Deion:

VIDEO:

Codec Bitrate Deion
----- ------- -----------
MPEG-4 AVC Video 3724 kbps 1080i / 25 fps / 16:9 / High Profile 4.1

AUDIO:

Codec Language Bitrate Deion
----- -------- ------- -----------
Dolby Digital Audio English 192 kbps 2.0 / 48 kHz / 192 kbps

FILES:

Name Time In Length Size Total Bitrate
---- ------- ------ ---- -------------
00008.M2TS 0:00:00.000 0:00:12.559 6 619 584 4 203

CHAPTERS:

Number Time In Length Avg Video Rate Max 1-Sec Rate Max 1-Sec Time Max 5-Sec Rate Max 5-Sec Time Max 10Sec Rate Max 10Sec Time Avg Frame Size Max Frame Size Max Frame Time
------ ------- ------ -------------- -------------- -------------- -------------- -------------- -------------- -------------- -------------- -------------- --------------
1 0:00:00.000 0:00:12.559 3 737 kbps 7 697 kbps 00:00:02.320 4 500 kbps 00:00:01.720 4 216 kbps 00:00:01.720 18 686 bytes 162 362 bytes 00:00:06.200

STREAM DIAGNOSTICS:

File PID Type Codec Language Seconds Bitrate Bytes Packets
---- --- ---- ----- -------- -------------- -------------- ------------- -----
00008.M2TS 4113 (0x1011) 0x1B AVC 12,480 3 761 5 867 467 32 082
00008.M2TS 4352 (0x1100) 0x81 AC3 eng (English) 12,480 193 301 056 1 960


QUICK SUMMARY:

Disc Title: Melancholia.BlueBird-HD
Disc Size: 39 514 597 760 bytes
Protection: AACS
BD-Java: No
Playlist: 00004.MPLS
Size: 6 619 584 bytes
Length: 0:00:12
Total Bitrate: 4,22 Mbps
Video: MPEG-4 AVC Video / 3724 kbps / 1080i / 25 fps / 16:9 / High Profile 4.1
Audio: English / Dolby Digital Audio / 2.0 / 48 kHz / 192 kbps

********************
PLAYLIST: 00005.MPLS
********************


Код:
Total Video
Title Codec Length Movie Size Disc Size Bitrate Bitrate Main Audio Track Secondary Audio Track
----- ------ ------- -------------- -------------- ------- ------- ------------------ ---------------------
00005.MPLS AVC 0:00:12 13 150 656 39 514 597 760 8,38 7,70 DD AC3 2.0 192Kbps
Код:
DISC INFO:

Disc Title: Melancholia.BlueBird-HD
Disc Size: 39 514 597 760 bytes
Protection: AACS
BD-Java: No
BDInfo: 0.5.2

PLAYLIST REPORT:

Name: 00005.MPLS
Size: 13 150 656 bytes
Length: 0:00:12 (h:m:s)
Total Bitrate: 8,38 Mbps
Deion:

VIDEO:

Codec Bitrate Deion
----- ------- -----------
MPEG-4 AVC Video 7700 kbps 1080i / 25 fps / 16:9 / High Profile 4.1

AUDIO:

Codec Language Bitrate Deion
----- -------- ------- -----------
Dolby Digital Audio English 192 kbps 2.0 / 48 kHz / 192 kbps

FILES:

Name Time In Length Size Total Bitrate
---- ------- ------ ---- -------------
00009.M2TS 0:00:00.000 0:00:12.559 13 150 656 8 350

CHAPTERS:

Number Time In Length Avg Video Rate Max 1-Sec Rate Max 1-Sec Time Max 5-Sec Rate Max 5-Sec Time Max 10Sec Rate Max 10Sec Time Avg Frame Size Max Frame Size Max Frame Time
------ ------- ------ -------------- -------------- -------------- -------------- -------------- -------------- -------------- -------------- -------------- --------------
1 0:00:00.000 0:00:12.559 7 727 kbps 23 503 kbps 00:00:02.320 11 190 kbps 00:00:02.159 9 226 kbps 00:00:01.840 38 633 bytes 439 789 bytes 00:00:04.279

STREAM DIAGNOSTICS:

File PID Type Codec Language Seconds Bitrate Bytes Packets
---- --- ---- ----- -------- -------------- -------------- ------------- -----
00009.M2TS 4113 (0x1011) 0x1B AVC 12,480 7 776 12 130 689 66 115
00009.M2TS 4352 (0x1100) 0x81 AC3 eng (English) 12,480 193 301 056 1 960


QUICK SUMMARY:

Disc Title: Melancholia.BlueBird-HD
Disc Size: 39 514 597 760 bytes
Protection: AACS
BD-Java: No
Playlist: 00005.MPLS
Size: 13 150 656 bytes
Length: 0:00:12
Total Bitrate: 8,38 Mbps
Video: MPEG-4 AVC Video / 7700 kbps / 1080i / 25 fps / 16:9 / High Profile 4.1
Audio: English / Dolby Digital Audio / 2.0 / 48 kHz / 192 kbps

********************
PLAYLIST: 00006.MPLS
********************


Код:
Total Video
Title Codec Length Movie Size Disc Size Bitrate Bitrate Main Audio Track Secondary Audio Track
----- ------ ------- -------------- -------------- ------- ------- ------------------ ---------------------
00006.MPLS AVC 0:00:12 11 461 056 39 514 597 760 7,30 6,67 DD AC3 2.0 192Kbps
Код:
DISC INFO:

Disc Title: Melancholia.BlueBird-HD
Disc Size: 39 514 597 760 bytes
Protection: AACS
BD-Java: No
BDInfo: 0.5.2

PLAYLIST REPORT:

Name: 00006.MPLS
Size: 11 461 056 bytes
Length: 0:00:12 (h:m:s)
Total Bitrate: 7,30 Mbps
Deion:

VIDEO:

Codec Bitrate Deion
----- ------- -----------
MPEG-4 AVC Video 6672 kbps 1080i / 25 fps / 16:9 / High Profile 4.1

AUDIO:

Codec Language Bitrate Deion
----- -------- ------- -----------
Dolby Digital Audio English 192 kbps 2.0 / 48 kHz / 192 kbps

FILES:

Name Time In Length Size Total Bitrate
---- ------- ------ ---- -------------
00010.M2TS 0:00:00.000 0:00:12.559 11 461 056 7 277

CHAPTERS:

Number Time In Length Avg Video Rate Max 1-Sec Rate Max 1-Sec Time Max 5-Sec Rate Max 5-Sec Time Max 10Sec Rate Max 10Sec Time Avg Frame Size Max Frame Size Max Frame Time
------ ------- ------ -------------- -------------- -------------- -------------- -------------- -------------- -------------- -------------- -------------- --------------
1 0:00:00.000 0:00:12.559 6 695 kbps 19 814 kbps 00:00:02.320 9 543 kbps 00:00:02.159 7 936 kbps 00:00:01.840 33 475 bytes 368 904 bytes 00:00:04.279

STREAM DIAGNOSTICS:

File PID Type Codec Language Seconds Bitrate Bytes Packets
---- --- ---- ----- -------- -------------- -------------- ------------- -----
00010.M2TS 4113 (0x1011) 0x1B AVC 12,480 6 738 10 511 135 57 311
00010.M2TS 4352 (0x1100) 0x81 AC3 eng (English) 12,480 193 301 056 1 960


QUICK SUMMARY:

Disc Title: Melancholia.BlueBird-HD
Disc Size: 39 514 597 760 bytes
Protection: AACS
BD-Java: No
Playlist: 00006.MPLS
Size: 11 461 056 bytes
Length: 0:00:12
Total Bitrate: 7,30 Mbps
Video: MPEG-4 AVC Video / 6672 kbps / 1080i / 25 fps / 16:9 / High Profile 4.1
Audio: English / Dolby Digital Audio / 2.0 / 48 kHz / 192 kbps

********************
PLAYLIST: 00007.MPLS
********************


Код:
Total Video
Title Codec Length Movie Size Disc Size Bitrate Bitrate Main Audio Track Secondary Audio Track
----- ------ ------- -------------- -------------- ------- ------- ------------------ ---------------------
00007.MPLS AVC 0:00:12 8 204 736 39 514 597 760 5,23 4,69 DD AC3 2.0 192Kbps
Код:
DISC INFO:

Disc Title: Melancholia.BlueBird-HD
Disc Size: 39 514 597 760 bytes
Protection: AACS
BD-Java: No
BDInfo: 0.5.2

PLAYLIST REPORT:

Name: 00007.MPLS
Size: 8 204 736 bytes
Length: 0:00:12 (h:m:s)
Total Bitrate: 5,23 Mbps
Deion:

VIDEO:

Codec Bitrate Deion
----- ------- -----------
MPEG-4 AVC Video 4688 kbps 1080i / 25 fps / 16:9 / High Profile 4.1

AUDIO:

Codec Language Bitrate Deion
----- -------- ------- -----------
Dolby Digital Audio English 192 kbps 2.0 / 48 kHz / 192 kbps

FILES:

Name Time In Length Size Total Bitrate
---- ------- ------ ---- -------------
00011.M2TS 0:00:00.000 0:00:12.559 8 204 736 5 209

CHAPTERS:

Number Time In Length Avg Video Rate Max 1-Sec Rate Max 1-Sec Time Max 5-Sec Rate Max 5-Sec Time Max 10Sec Rate Max 10Sec Time Avg Frame Size Max Frame Size Max Frame Time
------ ------- ------ -------------- -------------- -------------- -------------- -------------- -------------- -------------- -------------- -------------- --------------
1 0:00:00.000 0:00:12.559 4 704 kbps 11 143 kbps 00:00:02.320 6 031 kbps 00:00:01.720 5 405 kbps 00:00:01.720 23 522 bytes 227 855 bytes 00:00:05.240

STREAM DIAGNOSTICS:

File PID Type Codec Language Seconds Bitrate Bytes Packets
---- --- ---- ----- -------- -------------- -------------- ------------- -----
00011.M2TS 4113 (0x1011) 0x1B AVC 12,480 4 735 7 385 989 40 332
00011.M2TS 4352 (0x1100) 0x81 AC3 eng (English) 12,480 193 301 056 1 960


QUICK SUMMARY:

Disc Title: Melancholia.BlueBird-HD
Disc Size: 39 514 597 760 bytes
Protection: AACS
BD-Java: No
Playlist: 00007.MPLS
Size: 8 204 736 bytes
Length: 0:00:12
Total Bitrate: 5,23 Mbps
Video: MPEG-4 AVC Video / 4688 kbps / 1080i / 25 fps / 16:9 / High Profile 4.1
Audio: English / Dolby Digital Audio / 2.0 / 48 kHz / 192 kbps

Постеры

Скриншоты

Автор

Yoshkinkot
 


Торрент

Автор: Yoshkinkot
Добавлен: 21 ноя 2011, 15:50
Размер: 36.8 ГБ
Размер: 39 514 597 760 байт
Сидеров: 2
Личеров: 12
Скачали: 1
Здоровье: 16%
Статус: Проверен
Изменил: T E K (21 ноя 2011, 21:36)
Скорость скачивания: 0 байт/сек
Скорость раздачи: 0 байт/сек
Последний сидер: 6 дней 12 часов 36 минут 30 секунд назад
Последний личер: 6 дней 12 часов 36 минут 30 секунд назад
Приватный: Нет (DHT включён)
Blu-Ray Скачать торрент
Скачать торрент
[ Размер 189.72 КБ / Просмотров 5 ]


Вернуться в Blu-Ray

Кто сейчас на конференции

Сейчас этот форум просматривают: нет зарегистрированных пользователей и гости: 1

Привет!

Привет, меня зовут Няша, я что-то типа ангела хранителя RipFunClub'а. Так как админ меня не дописал, я еще глупенькая, и ни чего не умею и между прочим мне за это очень стыдно =( К тому же мой вид меня смущает ='(

А пока я могу только предложить зарегистрироваться или залогинеться =)