Главная » ТрекерВидео (кино, ТВ)Художественное кинофильмы (Blu-Ray/BDRip/HD)Blu-Ray
Версия для печати
Бессовестная реклама: на этой странице пока нет =)

Девушка с татуировкой дракона / The Girl with the Dragon Tattoo(2011)BDRemux

Здесь размещены фильмы в качестве Blu-ray
Правила форума

Сообщение

Девушка с татуировкой дракона / The Girl with the Dragon Tattoo(2011)BDRemux

Сообщение Freeman » 11 мар 2012, 17:22

Страна: США, Германия, Швеция, Великобритания
Жанр: Триллер, драма, криминал, детектив
Год выпуска: 2011
Продолжительность: 02:38:09
Перевод: Профессиональный (полное дублирование)
Формат субтитров: srt, pgs
Оригинальная аудиодорожка: Английская
Режиссёр: Дэвид Финчер / David Fincher
В ролях: Дэниэл Крэйг, Руни Мара, Кристофер Пламмер, Стеллан Скарсгард, Стивен Беркофф, Робин Райт, Йорик ван Вагенинген, Джоэли Ричардсон, Джеральдин Джеймс, Горан Вишнич


Описание: Сорок лет назад Харриет Вангер бесследно пропала на острове, принадлежащем могущественному клану Вангер. Ее тело так и не было найдено, но ее дядя убежден, что это убийство и что убийца является членом его собственной, тесно сплоченной и неблагополучной семьи. Он нанимает опального журналиста Микаэля Блумквиста и татуированную хакершу Лисбет Саландер для проведения расследования.


Тип релиза: BDRemux
Контейнер: MKV
Видео: MPEG-4 AVC / 31479 kbps / 1080p / 23.976 fps / 16:9 / High Profile 4.1
Аудио 1: Русский дубляж / Dolby Digital / 5.1 / 448 kbps / 48 kHz
Аудио 2: Украинский дубляж / Dolby Digital / 5.1 / 448 kbps / 48 kHz
Аудио 3: Английский / DTS-HD MA / 5.1 / 2344 kbps / 48 kHz / 16-bit (DTS Core: 5.1 / 48 kHz / 1509 kbps / 16-bit)
Аудио 4: Английский / Dolby Digital / 2.0 / 192 kbps / 48 kHz (Commentary with Director David Fincher)
Cубтитры 1: Русские srt (только надписи и пр.)
Cубтитры 2: Русские srt
Cубтитры 3: Английские srt
Cубтитры 4: Английские pgs
Cубтитры 5: Английские SDH pgs
Cубтитры 6: Английские pgs (Commentary with Director David Fincher)
Чаптеры: есть
Полное имя : The.Girl.with.the.Dragon.Tattoo.2011.Blu-ray.1080p.AVC.Rus.Ukr.Eng.mkv
Формат : Matroska
Версия формата : Version 2
Размер файла : 38,6 Гбайт
Продолжительность : 2 ч. 38 м.
Общий поток : 34,9 Мбит/сек
Название фильма : HANSMER
Дата кодирования : UTC 2012-03-03 22:13:26
Программа кодирования : mkvmerge v5.3.0 ('I could have danced') built on Feb 9 2012 10:38:07
Библиотека кодирования : libebml v1.2.3 + libmatroska v1.3.0
Видео
Идентификатор : 1
Формат : AVC
Формат/Информация : Advanced Video Codec
Профиль формата : High@L4.1
Параметр CABAC формата : Да
Параметр ReFrames формата : 4 кадра
Режим смешивания : Container profile=Unknown@0.0
Идентификатор кодека : V_MPEG4/ISO/AVC
Продолжительность : 2 ч. 38 м.
Вид битрейта : Переменный
Битрейт : 31,6 Мбит/сек
Максимальный битрейт : 37,0 Мбит/сек
Ширина : 1920 пикселей
Высота : 1080 пикселей
Соотношение сторон : 16:9
Частота кадров : 23,976 кадра/сек
Цветовое пространство : YUV
Субдискретизация насыщенности : 4:2:0
Битовая глубина : 8 бит
Тип развёртки : Прогрессивная
Бит/(Пиксели*Кадры) : 0.635
Размер потока : 34,9 Гбайт (90%)
Заголовок : 31479 kbps
Язык : English
Аудио #1
Идентификатор : 2
Формат : AC-3
Формат/Информация : Audio Coding 3
Расширение режима : CM (complete main)
Идентификатор кодека : A_AC3
Продолжительность : 2 ч. 38 м.
Вид битрейта : Постоянный
Битрейт : 448 Кбит/сек
Каналы : 6 каналов
Расположение каналов : Front: L C R, Side: L R, LFE
Частота : 48,0 КГц
Битовая глубина : 16 бит
Метод сжатия : С потерями
Размер потока : 507 Мбайт (1%)
Язык : Russian
Аудио #2
Идентификатор : 3
Формат : AC-3
Формат/Информация : Audio Coding 3
Расширение режима : CM (complete main)
Идентификатор кодека : A_AC3
Продолжительность : 2 ч. 38 м.
Вид битрейта : Постоянный
Битрейт : 448 Кбит/сек
Каналы : 6 каналов
Расположение каналов : Front: L C R, Side: L R, LFE
Частота : 48,0 КГц
Битовая глубина : 16 бит
Метод сжатия : С потерями
Размер потока : 507 Мбайт (1%)
Язык : Ukrainian
Аудио #3
Идентификатор : 4
Формат : DTS
Формат/Информация : Digital Theater Systems
Профиль формата : MA / Core
Идентификатор кодека : A_DTS
Продолжительность : 2 ч. 38 м.
Вид битрейта : Переменный
Битрейт : 1561 Кбит/сек / 1510 Кбит/сек
Каналы : 6 каналов
Расположение каналов : Front: L C R, Side: L R, LFE
Частота : 48,0 КГц
Битовая глубина : 16 бит
Метод сжатия : Без потерь / Lossy
Заголовок : DTS-HD MA 5.1 @ 2344 kbps
Язык : English
Аудио #4
Идентификатор : 5
Формат : AC-3
Формат/Информация : Audio Coding 3
Профиль формата : Dolby Digital
Расширение режима : CM (complete main)
Идентификатор кодека : A_AC3
Продолжительность : 2 ч. 38 м.
Вид битрейта : Постоянный
Битрейт : 192 Кбит/сек
Каналы : 2 канала
Расположение каналов : Front: L R
Частота : 48,0 КГц
Битовая глубина : 16 бит
Метод сжатия : С потерями
Размер потока : 217 Мбайт (1%)
Заголовок : Commentary with Director David Fincher
Язык : English
Текст #1
Идентификатор : 6
Формат : UTF-8
Идентификатор кодека : S_TEXT/UTF8
Идентификатор кодека/Информация : UTF-8 Plain Text
Заголовок : Forced
Язык : Russian
Текст #2
Идентификатор : 7
Формат : UTF-8
Идентификатор кодека : S_TEXT/UTF8
Идентификатор кодека/Информация : UTF-8 Plain Text
Язык : Russian
Текст #3
Идентификатор : 8
Формат : UTF-8
Идентификатор кодека : S_TEXT/UTF8
Идентификатор кодека/Информация : UTF-8 Plain Text
Язык : English
Текст #4
Идентификатор : 9
Формат : PGS
Идентификатор кодека : S_HDMV/PGS
Идентификатор кодека/Информация : The same subtitle format used on BDs/HD-DVDs
Язык : English
Текст #5
Идентификатор : 10
Формат : PGS
Идентификатор кодека : S_HDMV/PGS
Идентификатор кодека/Информация : The same subtitle format used on BDs/HD-DVDs
Заголовок : SDH
Язык : English
Текст #6
Идентификатор : 11
Формат : PGS
Идентификатор кодека : S_HDMV/PGS
Идентификатор кодека/Информация : The same subtitle format used on BDs/HD-DVDs
Заголовок : Commentary with Director David Fincher
Язык : English
Меню
00:00:00.000 : en:Chapter 1
00:09:53.885 : en:Chapter 2
00:22:05.699 : en:Chapter 3
00:28:24.786 : en:Chapter 4
00:38:09.746 : en:Chapter 5
00:48:00.920 : en:Chapter 6
00:55:07.346 : en:Chapter 7
01:01:06.204 : en:Chapter 8
01:09:22.033 : en:Chapter 9
01:16:12.860 : en:Chapter 10
01:23:27.711 : en:Chapter 11
01:32:49.731 : en:Chapter 12
01:41:35.006 : en:Chapter 13
01:58:54.210 : en:Chapter 14
02:14:42.533 : en:Chapter 15
02:23:15.837 : en:Chapter 16
[Для просмотра изображения необходимо включить JavaScript][Для просмотра изображения необходимо включить JavaScript][Для просмотра изображения необходимо включить JavaScript][Для просмотра изображения необходимо включить JavaScript][Для просмотра изображения необходимо включить JavaScript][Для просмотра изображения необходимо включить JavaScript]

Постеры

Автор

Freeman
 


Торрент

Автор: Freeman
Добавлен: 11 мар 2012, 17:22
Размер: 38.56 ГБ
Размер: 41 398 349 658 байт
Сидеров: 9
Личеров: 5
Скачали: 0
Здоровье: 100%
Статус: Проверен
Изменил: T E K (11 мар 2012, 17:27)
Скорость скачивания: 0 байт/сек
Скорость раздачи: 0 байт/сек
Последний сидер: 4 дня 11 часов 30 минут 32 секунды назад
Последний личер: 4 дня 11 часов 30 минут 32 секунды назад
Приватный: Нет (DHT включён)
Blu-Ray Скачать торрент
Скачать торрент
[ Размер 193.36 КБ / Просмотров 13 ]


Вернуться в Blu-Ray

Кто сейчас на конференции

Сейчас этот форум просматривают: нет зарегистрированных пользователей и гости: 1

Привет!

Привет, меня зовут Няша, я что-то типа ангела хранителя RipFunClub'а. Так как админ меня не дописал, я еще глупенькая, и ни чего не умею и между прочим мне за это очень стыдно =( К тому же мой вид меня смущает ='(

А пока я могу только предложить зарегистрироваться или залогинеться =)