Главная » ТрекерВидео (кино, ТВ)Художественное кинофильмы (Blu-Ray/BDRip/HD)BDRip
Версия для печати
Бессовестная реклама: на этой странице пока нет =)

Разделитель / The Divide (2011) BDRip 720p

В даном разделе все BDRip (720, 1080)
Правила форума

Сообщение

Разделитель / The Divide (2011) BDRip 720p

Сообщение Yoshkinkot » 01 апр 2012, 06:47

Название: Разделитель
Оригинальное название: The Divide
Год выхода: 2011
Жанр:ужасы, фантастика, триллер
Режиссер: Ксавьер Генс
В ролях: Лорен Джерман, Майкл Бьен, Майло Вентимилья, Кортни Б. Вэнс, Эштон Холмс, Розанна Аркетт, Иван Гонзалез, Майкл Эклунд, Дженнифер Бланк

О фильме: События фильма разворачиваются в подвале одного из зданий в Нью-Йорке, который стал своего рода спасательным бункером для восьмерых людей, когда город был разрушен в результате мощного взрыва неизвестного происхождения. Где-то в глубине подвала они видят человека в ОЗК и с оружием, который, похоже, объявил на них охоту.
[Для просмотра изображения необходимо включить JavaScript]

Выпущено: США [Для просмотра изображения необходимо включить JavaScript], Германия [Для просмотра изображения необходимо включить JavaScript], Канада [Для просмотра изображения необходимо включить JavaScript] / Instinctive Film, Preferred Content, BR Group
Продолжительность: 02:02:14
Озвучивание: Любительское (двухголосое) [Чип и Дейл]


Качество: BDRip 720p
Видео: MPEG-4 AVC, 9876 Кбит/с, 1280x544
Аудио: Русский (АС3, 6 ch, 384 Кбит/с), английский (DTS, 6 ch, 1536 Кбит/с)
Субтитры: Русские, английские

[Для просмотра изображения необходимо включить JavaScript]


General
Unique ID: 178628240759556416556411392027886718231 (0x86628C3B42079507BC5500897ACD8D17)
Complete name: Razdelitel.2011.x264.BDRip.(720p).mkv
Format: Matroska
Format version: Version 2
File size: 10.3 GiB
Duration: 2h 2mn
Overall bit rate: 12.0 Mbps
Encoded date: UTC 2012-05-23 06:38:53
Writing application: mkvmerge v5.2.0 ('I can't explain') built on Dec 18 2011 18:12:03
Writing library: libebml v1.2.3 + libmatroska v1.3.0

Video
ID: 1
Format: AVC
Format/Info: Advanced Video Codec
Format profile: High@L4.1
Format settings, CABAC: Yes
Format settings, ReFrames: 12 frames
Codec ID: V_MPEG4/ISO/AVC
Duration: 2h 2mn
Bit rate: 9 876 Kbps
Width: 1 280 pixels
Height: 544 pixels
Display aspect ratio: 2.35:1
Frame rate: 23.976 fps
Color space: YUV
Chroma subsampling: 4:2:0
Bit depth: 8 bits
Scan type: Progressive
Bits/(Pixel*Frame): 0.592
Stream size: 8.43 GiB (82%)
Title: The.Divide.2011.720p.BluRay.x264.DTS-HDChina
Writing library: x264 core 122 r2184+660+29 d9bb3b9 tMod+MixAQ [8-bit@4:2:0 X86_64]
Encoding settings: cabac=1 / ref=12 / deblock=1:-3:-3 / analyse=0x3:0x133 / me=umh / subme=10 / psy=1 / fade_compensate=0.00 / psy_rd=1.07:0.00 / mixed_ref=1 / me_range=48 / chroma_me=1 / trellis=2 / 8x8dct=1 / cqm=0 / deadzone=21,11 / fast_pskip=0 / chroma_qp_offset=-2 / threads=12 / sliced_threads=0 / nr=0 / decimate=0 / interlaced=0 / bluray_compat=0 / constrained_intra=0 / fgo=0 / bframes=8 / b_pyramid=2 / b_adapt=2 / b_bias=0 / direct=3 / weightb=1 / open_gop=0 / weightp=2 / keyint=240 / keyint_min=24 / scenecut=40 / intra_refresh=0 / rc=crf / mbtree=0 / crf=18.4000 / qcomp=0.70 / qpmin=0 / qpmax=69 / qpstep=4 / ip_ratio=1.40 / pb_ratio=1.25 / aq=4 / aq-strength=1.10 / aq-sensitivity=10.00 / aq-ifactor=1.00 / aq-pfactor=1.00 / aq-bfactor=1.00 / aq2=0
Language: English

Audio #1
ID: 2
Format: AC-3
Format/Info: Audio Coding 3
Mode extension: CM (complete main)
Codec ID: A_AC3
Duration: 2h 2mn
Bit rate mode: Constant
Bit rate: 384 Kbps
Channel(s): 6 channels
Channel positions: Front: L C R, Side: L R, LFE
Sampling rate: 48.0 KHz
Bit depth: 16 bits
Compression mode: Lossy
Stream size: 336 MiB (3%)
Language: Russian

Audio #2
ID: 3
Format: DTS
Format/Info: Digital Theater Systems
Codec ID: A_DTS
Duration: 2h 2mn
Bit rate mode: Constant
Bit rate: 1 510 Kbps
Channel(s): 6 channels
Channel positions: Front: L C R, Side: L R, LFE
Sampling rate: 48.0 KHz
Bit depth: 24 bits
Compression mode: Lossy
Delay relative to video: 11ms
Stream size: 1.29 GiB (13%)
Title: ENGLiSHDTS 5.1 @ 1509 kbps
Language: English

Text #1
ID: 4
Format: UTF-8
Codec ID: S_TEXT/UTF8
Codec ID/Info: UTF-8 Plain Text
Language: Russian

Text #2
ID: 5
Format: UTF-8
Codec ID: S_TEXT/UTF8
Codec ID/Info: UTF-8 Plain Text
Language: English

Постеры

Скриншоты

Автор

Yoshkinkot
 


Торрент

Автор: Yoshkinkot
Добавлен: 01 апр 2012, 06:47
Размер: 10.25 ГБ
Размер: 11 009 068 268 байт
Сидеров: 1
Личеров: 2
Скачали: 0
Здоровье: 50%
Статус: Проверен
Изменил: T E K (01 апр 2012, 07:03)
Скорость скачивания: 0 байт/сек
Скорость раздачи: 0 байт/сек
Последний сидер: 3 месяца 28 дней 21 час 6 минут 26 секунд назад
Последний личер: 3 месяца 28 дней 21 час 6 минут 26 секунд назад
Приватный: Нет (DHT включён)
BDRip Скачать торрент
Скачать торрент
[ Размер 51.65 КБ / Просмотров 5 ]


Вернуться в BDRip

Кто сейчас на конференции

Сейчас этот форум просматривают: нет зарегистрированных пользователей и гости: 1

Привет!

Привет, меня зовут Няша, я что-то типа ангела хранителя RipFunClub'а. Так как админ меня не дописал, я еще глупенькая, и ни чего не умею и между прочим мне за это очень стыдно =( К тому же мой вид меня смущает ='(

А пока я могу только предложить зарегистрироваться или залогинеться =)