Главная » ТрекерВидео (кино, ТВ)Художественное кинофильмы (Blu-Ray/BDRip/HD)BDRip
Версия для печати
Бессовестная реклама: на этой странице пока нет =)

Вышибала / Goon (2011) BDRip 720p | Лицензия

В даном разделе все BDRip (720, 1080)
Правила форума

Сообщение

Вышибала / Goon (2011) BDRip 720p | Лицензия

Сообщение maxwell » 10 апр 2012, 14:07

Страна: США, Канада
Жанр:комедия, спорт
Год выпуска: 2011
Продолжительность: 1:30:57.125
Перевод: Профессиональный (дублированный)

Режиссер: Майкл Даус / Michael Dowse

В ролях: Шонн Уильям Скотт, Джей Барушель, Лив Шрайбер, Юджин Леви, Элисон Пилл, Марк-Андре Гронден, Ким Коутс, Николас Кэмпбелл, Ричард Кларкин, Джонатан Черри

Описание: Даг — простой вышибала, работающий в провинциальном баре. Однажды, ввязавшись в драку на хоккейном матче с одним из игроков, он попадает в поле зрения тренера команды мастеров. Ему срочно нужен игрок, который сможет защитить на льду ведущего нападающего клуба. Даг не умеет стоять на коньках, но этому можно научиться, зато в драке ему нет равных! У команды-главного конкурента есть свой тафгай, Росс «Босс-Мать-Его» Риа, от одного вида которого дрожит вся хоккейная лига. Дагу и Россу предстоит сойтись в одном матче. Наш герой, с помощью своего друга, делает головокружительную карьеру, сплотив вокруг себя всю команду, и завоевывает любовь самой лучшей девушки на свете. С точки зрения Дага, конечно.
[Для просмотра изображения необходимо включить JavaScript]

Тип релиза:BDRip 720p
Формат: MKV
Видео кодек: AVC
Аудио кодек: AC-3
Видео: AVC, 1280x698 (16/9), 24.000 fps, 5 743 Kbps (0.268 bit/pixel)
Аудио: AC-3, 48.0 KHz, 6 ch, 448 Kbps, CBR
Cубтитры: нет



General
Unique ID: 224648270281148613043691880518494139080 (0xA901AEDD9AEAA1E3849DA140E2C732C8)
Complete name: E:mkvGOON_BD_BLUEBIRDGOON_BD_BLUEBIRD.mkv
Format: Matroska
File size: 4.01 GiB
Duration: 1h 30mn
Overall bit rate: 6 316 Kbps
Movie name: GOON_BD_BLUEBIRD.Title4.BlurayRip
Encoded date: UTC 2012-04-09 17:15:16
Writing application: DVDFab
Writing library: libebml v0.7.8 + libmatroska v0.8.1

Video
ID: 1
Format: AVC
Format/Info: Advanced Video Codec
Format profile: High@L5.1
Format settings, CABAC: Yes
Format settings, ReFrames: 2 frames
Codec ID: V_MPEG4/ISO/AVC
Duration: 1h 30mn
Bit rate: 5 743 Kbps
Width: 1 280 pixels
Height: 698 pixels
Display aspect ratio: 16:9
Frame rate: 24.000 fps
Color space: YUV
Chroma subsampling: 4:2:0
Bit depth: 8 bits
Scan type: Progressive
Bits/(Pixel*Frame): 0.268
Stream size: 3.65 GiB (91%)
Writing library: x264 core
Color primaries: BT.709-5, BT.1361, IEC 61966-2-4, SMPTE RP177
Transfer characteristics: BT.709-5, BT.1361
Matrix coefficients: BT.709-5, BT.1361, IEC 61966-2-4 709, SMPTE RP177

Audio
ID: 2
Format: AC-3
Format/Info: Audio Coding 3
Mode extension: CM (complete main)
Codec ID: A_AC3
Duration: 1h 30mn
Bit rate mode: Constant
Bit rate: 448 Kbps
Channel(s): 6 channels
Channel positions: Front: L C R, Side: L R, LFE
Sampling rate: 48.0 KHz
Bit depth: 16 bits
Compression mode: Lossy
Stream size: 291 MiB (7%)

Menu
00:00:00.000: en:(01)00:00:00:000
00:05:17.833: en:(02)00:05:17:833
00:08:41.125: en:(03)00:08:41:125
00:12:30.750: en:(04)00:12:30:750
00:15:07.583: en:(05)00:15:07:583
00:18:26.125: en:(06)00:18:26:125
00:21:46.625: en:(07)00:21:46:625
00:30:54.541: en:(08)00:30:54:541
00:41:11.250: en:(09)00:41:11:250
00:48:05.333: en:(10)00:48:05:333
00:50:52.041: en:(11)00:50:52:041
00:56:58.333: en:(12)00:56:58:333
01:02:53.041: en:(13)01:02:53:041
01:09:38.291: en:(14)01:09:38:291
01:14:10.875: en:(15)01:14:10:875
01:24:04.125: en:(16)01:24:04:125
01:30:56.625: en:(17)01:30:56:625

Постеры

Скриншоты

Автор

Аватара пользователя
maxwell
Младший админ
Младший админ
 
Раздал: 169.01 ГБ
Скачал: 134.6 ГБ
Ратио: 1.256
Сообщения: 437
Зарегистрирован: 20 фев 2012, 16:27
Репутация: 26


Торрент

Автор: maxwell
Добавлен: 10 апр 2012, 14:07
Размер: 4.01 ГБ
Размер: 4 308 555 784 байт
Сидеров: 32
Личеров: 4
Скачали: 2
Здоровье: 100%
Статус: Проверен
Изменил: maxwell (10 апр 2012, 14:10)
Скорость скачивания: 0 байт/сек
Скорость раздачи: 0 байт/сек
Последний сидер: 3 месяца 26 дней 20 часов 13 минут 45 секунд назад
Последний личер: 3 месяца 26 дней 20 часов 13 минут 45 секунд назад
Приватный: Нет (DHT включён)
BDRip Скачать торрент
Скачать торрент
[ Размер 20.43 КБ / Просмотров 9 ]


Вернуться в BDRip

Кто сейчас на конференции

Сейчас этот форум просматривают: нет зарегистрированных пользователей и гости: 1

Привет!

Привет, меня зовут Няша, я что-то типа ангела хранителя RipFunClub'а. Так как админ меня не дописал, я еще глупенькая, и ни чего не умею и между прочим мне за это очень стыдно =( К тому же мой вид меня смущает ='(

А пока я могу только предложить зарегистрироваться или залогинеться =)