Главная » ТрекерВидео (кино, ТВ)Художественное кинофильмы (Blu-Ray/BDRip/HD)BDRip
Версия для печати
Бессовестная реклама: на этой странице пока нет =)

Эффект бабочки / The Butterfly Effect (2004) BDRip 1080p | Театральная версия / Theatrical Cut

В даном разделе все BDRip (720, 1080)
Правила форума

Сообщение

Эффект бабочки / The Butterfly Effect (2004) BDRip 1080p | Театральная версия / Theatrical Cut

Сообщение maxwell » 16 апр 2012, 16:00

Информация о фильме:
Название: Эффект бабочки
Оригинальное название: The Butterfly Effect
Год выхода: 2004
Жанр:фантастика, триллер
Режиссер: Эрик Бресс / Eric Bress, Дж. Макки Грубер / J. Mackye Gruber
В ролях: Эштон Катчер, Эми Смарт, Мелора Уолтерс, Элден Хенсон, Уильям Ли Скотт, Джон Патрик Амедори, Ирен Горовая, Кевин Шмидт, Джесси Джеймс, Логан Лерман

О фильме:
Мальчик Эван перенял от своего отца-психопата, ныне запертого в доме для умалишённых, странную болезнь — он не помнит некоторых эпизодов своей жизни, причем в эти моменты происходили довольно странные, а то и ужасные, события. Возмужав и поступив в колледж, Эван делает удивительное открытие. Читая дневники, которые он писал в детстве по совету врача, Эван может возвращаться в детство и своими действиями изменять будущее.


[Для просмотра изображения необходимо включить JavaScript]

Выпущено: США, Канада
Продолжительность: 01:53:37
Перевод: Дублированный
[Для просмотра изображения необходимо включить JavaScript]
Файл
Кодек: x264
Качество: BDRip 1080p
Видео: 1920x1080, 5126 Kbps, 23.976 fps
Звук: 48 kHz, AC3, 6c, 384 kbps
Субтитры: русские, английские

General
Unique ID: 219676096842106774594415565164533013707 (0xA54413C9C3B81C38AC750711F4CC5CCB)
Complete name: Эффект бабочки.2004.BDRip.1080p.Rus.mkv
Format: Matroska
Format version: Version 2
File size: 4.37 GiB
Duration: 1h 53mn
Overall bit rate: 5 507 Kbps
Movie name: Эффект бабочки.2004
Encoded date: UTC 2012-04-15 10:54:51
Writing application: mkvmerge v5.5.0 ('Healer') built on Apr 10 2012 09:33:48
Writing library: libebml v1.2.3 + libmatroska v1.3.0

Video
ID: 1
Format: AVC
Format/Info: Advanced Video Codec
Format profile: High@L4.1
Format settings, CABAC: Yes
Format settings, ReFrames: 4 frames
Codec ID: V_MPEG4/ISO/AVC
Duration: 1h 53mn
Bit rate: 5 126 Kbps
Width: 1 920 pixels
Height: 1 080 pixels
Display aspect ratio: 16:9
Frame rate: 23.976 fps
Color space: YUV
Chroma subsampling: 4:2:0
Bit depth: 8 bits
Scan type: Progressive
Bits/(Pixel*Frame): 0.103
Stream size: 3.98 GiB (91%)
Title: Rip by Boriy
Writing library: x264 core 122 r2184 5c85e0a
Encoding settings: cabac=1 / ref=4 / deblock=1:0:0 / analyse=0x3:0x113 / me=umh / subme=10 / psy=1 / psy_rd=1.00:0.10 / mixed_ref=1 / me_range=32 / chroma_me=1 / trellis=2 / 8x8dct=1 / cqm=0 / deadzone=21,11 / fast_pskip=0 / chroma_qp_offset=-3 / threads=12 / sliced_threads=0 / nr=0 / decimate=1 / interlaced=0 / bluray_compat=0 / constrained_intra=0 / bframes=5 / b_pyramid=2 / b_adapt=2 / b_bias=0 / direct=3 / weightb=1 / open_gop=0 / weightp=2 / keyint=240 / keyint_min=23 / scenecut=40 / intra_refresh=0 / rc_lookahead=60 / rc=2pass / mbtree=1 / bitrate=5126 / ratetol=1.0 / qcomp=0.60 / qpmin=0 / qpmax=69 / qpstep=4 / cplxblur=20.0 / qblur=0.5 / ip_ratio=1.40 / aq=1:1.00
Language: English
Default: Yes
Forced: No

Audio
ID: 2
Format: AC-3
Format/Info: Audio Coding 3
Mode extension: CM (complete main)
Format settings, Endianness: Big
Codec ID: A_AC3
Duration: 1h 53mn
Bit rate mode: Constant
Bit rate: 384 Kbps
Channel(s): 6 channels
Channel positions: Front: L C R, Side: L R, LFE
Sampling rate: 48.0 KHz
Bit depth: 16 bits
Compression mode: Lossy
Stream size: 312 MiB (7%)
Title: Дубляж
Language: Russian
Default: Yes
Forced: No

Text #1
ID: 3
Format: UTF-8
Codec ID: S_TEXT/UTF8
Codec ID/Info: UTF-8 Plain Text
Language: Russian
Default: No
Forced: No

Text #2
ID: 4
Format: UTF-8
Codec ID: S_TEXT/UTF8
Codec ID/Info: UTF-8 Plain Text
Language: English
Default: No
Forced: No

Menu
00:00:00.000: en:00:00:00.000
00:06:28.596: en:00:06:28.596
00:11:16.675: en:00:11:16.675
00:16:50.009: en:00:16:50.009
00:25:07.422: en:00:25:07.422
00:31:40.481: en:00:31:40.481
00:39:27.448: en:00:39:27.448
00:46:14.563: en:00:46:14.563
00:57:49.966: en:00:57:49.966
01:04:58.769: en:01:04:58.769
01:14:49.443: en:01:14:49.443
01:23:12.529: en:01:23:12.529
01:28:50.950: en:01:28:50.950
01:37:17.039: en:01:37:17.039
01:43:09.141: en:01:43:09.141
01:47:55.760: en:01:47:55.760
01:53:30.845: en:01:53:30.845

Постеры

Автор

Аватара пользователя
maxwell
Младший админ
Младший админ
 
Раздал: 169.01 ГБ
Скачал: 134.6 ГБ
Ратио: 1.256
Сообщения: 437
Зарегистрирован: 20 фев 2012, 16:27
Репутация: 26


Торрент

Автор: maxwell
Добавлен: 16 апр 2012, 16:00
Размер: 4.37 ГБ
Размер: 4 693 048 254 байт
Сидеров: 61
Личеров: 12
Скачали: 0
Здоровье: 100%
Раздающих: 100%
Статус: Проверен
Изменил: maxwell (16 апр 2012, 16:03)
Скорость скачивания: 0 байт/сек
Скорость раздачи: 0 байт/сек
Последний сидер: 2 месяца 5 дней 21 час 18 минут 23 секунды назад
Последний личер: 2 месяца 5 дней 21 час 18 минут 23 секунды назад
Приватный: Нет (DHT включён)
BDRip Скачать торрент
Скачать торрент
[ Размер 22.29 КБ / Просмотров 9 ]


Вернуться в BDRip

Кто сейчас на конференции

Сейчас этот форум просматривают: нет зарегистрированных пользователей и гости: 1

Привет!

Привет, меня зовут Няша, я что-то типа ангела хранителя RipFunClub'а. Так как админ меня не дописал, я еще глупенькая, и ни чего не умею и между прочим мне за это очень стыдно =( К тому же мой вид меня смущает ='(

А пока я могу только предложить зарегистрироваться или залогинеться =)