Главная » ТрекерВидео (кино, ТВ)Художественное кинофильмы (Blu-Ray/BDRip/HD)BDRip
Версия для печати
Бессовестная реклама: на этой странице пока нет =)

Зеркала / Mirrors (2008) BDRip 1080p | Unrated

В даном разделе все BDRip (720, 1080)
Правила форума

Сообщение

Зеркала / Mirrors (2008) BDRip 1080p | Unrated

Сообщение Asperatus » 17 апр 2012, 04:39

Информация о фильме
Название: Зеркала
Оригинальное название: Mirrors
Год выхода: 2008
Жанр: ужасы, триллер, детектив
Режиссер: Александр Ажа
В ролях: Кифер Сазерленд, Пола Пэттон, Камерон Бойс, Эрика Глюк, Эми Смарт, Мэри Бет Пейл, Джон Шрэпнел, Джейсон Флеминг, Тим Ахерн, Джулиан Гловер

О фильме: Бен Карсон знавал времена и получше. Уже прошел почти год с тех пор как неуравновешенного детектива отстранили от работы в Полицейском управлении г. Нью-Йорка за убийство другого сотрудника спецслужбы, несчастный случай, который не только стоил ему работы, но и пробудил в нем тягу к алкоголю и агрессивность, из-за чего жена и дети отдалились от него, а сам он нашел пристанище на диване в квартире своей сестры в Куинс.

Потеряв надежду вернуться к нормальной жизни и воссоединиться с семьей, Карсон нанимается на работу ночным сторожем выгоревших руин универмага «Mayflower». То, что когда-то было символом процветания и роскоши, теперь медленно разрушается в темноте, как загнивающий корабль-призрак, разоренный гигантским пожаром, поглотившим множество невинных жизней.

Когда Карсон обходит дозором свои владения, обугленные развалины универмага, он начинает замечать что-то зловещее в декоративных зеркалах, украшающих стены «Mayflower». В огромных мерцающих стеклах отражаются страшные, потрясающие Карсона образы…


[Для просмотра изображения необходимо включить JavaScript][Для просмотра изображения необходимо включить JavaScript]

Выпущено: Regency Enterprises
Продолжительность: 01:51:22
Перевод: Дублированный

Файл
Кодек: x264
Качество: BDRip (источник: Blu-ray Disc)
Видео: 1920x800 (2,40:1), 23.976 fps, 6523 kbps
Аудио #1: AC-3, 6 ch, 448 kbps (Rus)
Аудио #2: AC-3, 6 ch, 448 kbps (Eng)
Субтитры: Русские, Английские
Скачать: сэмпл
Общее
Уникальный идентификатор: 239030500824123738002418690506548460627 (0xB3D3999416BBA8F99B13F17754AE3C53)
Полное имя: Mirrors.Unrated.2008.BDRip.1080p.Rus.Eng.mkv
Формат: Matroska
Версия формата: Version 2
Размер файла: 5,77 Гбайт
Продолжительность: 1 ч. 51 м.
Общий поток: 7421 Кбит/сек
Название фильма: Зеркала / Mirrors (2008)
Дата кодирования: UTC 2012-04-16 05:08:59
Программа кодирования: mkvmerge v4.0.0 ('The Stars were mine') сборка от Jun6 2010 16:18:42
Библиотека кодирования: libebml v1.0.0 + libmatroska v1.0.0

Видео
Идентификатор: 1
Формат: AVC
Формат/Информация: Advanced Video Codec
Профиль формата: High@L4.1
Параметр CABAC формата: Да
Параметр ReFrames формата: 5 кадров
Идентификатор кодека: V_MPEG4/ISO/AVC
Продолжительность: 1 ч. 51 м.
Битрейт: 6523 Кбит/сек
Ширина: 1920 пикселей
Высота: 800 пикселей
Соотношение сторон: 2,40:1
Частота кадров: 23,976 кадра/сек
Цветовое пространство: YUV
Субдискретизация насыщенности: 4:2:0
Битовая глубина: 8 бит
Тип развёртки: Прогрессивная
Бит/(Пиксели*Кадры): 0.177
Размер потока: 4,96 Гбайт (86%)
Заголовок: Release by AlexKa
Библиотека кодирования: x264 core 122 r2184 5c85e0a
Настройки программы: cabac=1 / ref=5 / deblock=1:0:0 / analyse=0x3:0x133 / me=umh / subme=10 / psy=1 / psy_rd=1.00:0.10 / mixed_ref=1 / me_range=32 / chroma_me=1 / trellis=2 / 8x8dct=1 / cqm=0 / deadzone=21,11 / fast_pskip=0 / chroma_qp_offset=-3 / threads=12 / sliced_threads=0 / nr=0 / decimate=0 / interlaced=0 / bluray_compat=0 / constrained_intra=0 / bframes=5 / b_pyramid=2 / b_adapt=2 / b_bias=0 / direct=3 / weightb=1 / open_gop=0 / weightp=2 / keyint=240 / keyint_min=23 / scenecut=40 / intra_refresh=0 / rc_lookahead=60 / rc=2pass / mbtree=1 / bitrate=6523 / ratetol=1.0 / qcomp=0.60 / qpmin=0 / qpmax=69 / qpstep=4 / cplxblur=20.0 / qblur=0.5 / ip_ratio=1.40 / aq=1:1.00
Язык: English

Аудио #1
Идентификатор: 2
Формат: AC-3
Формат/Информация: Audio Coding 3
Расширение режима: CM (complete main)
Идентификатор кодека: A_AC3
Продолжительность: 1 ч. 51 м.
Вид битрейта: Постоянный
Битрейт: 448 Кбит/сек
Каналы: 6 каналов
Расположение каналов: Front: L C R, Side: L R, LFE
Частота: 48,0 КГц
Битовая глубина: 16 бит
Метод сжатия: С потерями
Размер потока: 357 Мбайт (6%)
Заголовок: Rus
Язык: Russian

Аудио #2
Идентификатор: 3
Формат: AC-3
Формат/Информация: Audio Coding 3
Расширение режима: CM (complete main)
Идентификатор кодека: A_AC3
Продолжительность: 1 ч. 51 м.
Вид битрейта: Постоянный
Битрейт: 448 Кбит/сек
Каналы: 6 каналов
Расположение каналов: Front: L C R, Side: L R, LFE
Частота: 48,0 КГц
Битовая глубина: 16 бит
Метод сжатия: С потерями
Размер потока: 357 Мбайт (6%)
Заголовок: Eng
Язык: English

Текст #1
Идентификатор: 4
Формат: UTF-8
Идентификатор кодека: S_TEXT/UTF8
Идентификатор кодека/Информация: UTF-8 Plain Text
Заголовок: Rus
Язык: Russian

Текст #2
Идентификатор: 5
Формат: UTF-8
Идентификатор кодека: S_TEXT/UTF8
Идентификатор кодека/Информация: UTF-8 Plain Text
Заголовок: Eng
Язык: English

Меню
00:00:00.000: :Chapter 01
00:03:52.563: :Chapter 02
00:05:45.092: :Chapter 03
00:07:26.237: :Chapter 04
00:11:20.512: :Chapter 05
00:15:38.269: :Chapter 06
00:21:44.469: :Chapter 07
00:23:34.453: :Chapter 08
00:33:31.718: :Chapter 09
00:36:26.266: :Chapter 10
00:39:24.277: :Chapter 11
00:44:32.585: :Chapter 12
00:51:03.518: :Chapter 13
00:53:23.949: :Chapter 14
00:56:35.934: :Chapter 15
01:01:58.130: :Chapter 16
01:06:07.003: :Chapter 17
01:08:22.389: :Chapter 18
01:10:34.854: :Chapter 19
01:14:10.487: :Chapter 20
01:19:32.559: :Chapter 21
01:24:26.310: :Chapter 22
01:29:28.154: :Chapter 23
01:32:21.618: :Chapter 24
01:36:07.302: :Chapter 25
01:38:25.231: :Chapter 26
01:42:42.988: :Chapter 27
01:47:23.144: :Chapter 28
01:51:21.966: :Chapter 29

[Для просмотра изображения необходимо включить JavaScript]

Постеры

Автор

Аватара пользователя
Asperatus
Супермодератор
Супермодератор
 
Раздал: 3.2 ТБ
Скачал: 936.22 ГБ
Ратио: 3.502
Сообщения: 462
Зарегистрирован: 05 май 2009, 03:39
Репутация: 20


Торрент

Автор: Asperatus
Добавлен: 17 апр 2012, 04:39
Размер: 5.77 ГБ
Размер: 6 198 335 184 байт
Сидеров: 190
Личеров: 30
Скачали: 0
Здоровье: 100%
Статус: Проверен
Изменил: Asperatus (17 апр 2012, 15:32)
Скорость скачивания: 0 байт/сек
Скорость раздачи: 0 байт/сек
Последний сидер: 2 месяца 8 дней 5 часов 15 минут 18 секунд назад
Последний личер: 2 месяца 8 дней 5 часов 15 минут 18 секунд назад
Приватный: Нет (DHT включён)
BDRip Скачать торрент
Скачать торрент
[ Размер 29.29 КБ / Просмотров 3 ]


Вернуться в BDRip

Кто сейчас на конференции

Сейчас этот форум просматривают: нет зарегистрированных пользователей и гости: 2

Привет!

Привет, меня зовут Няша, я что-то типа ангела хранителя RipFunClub'а. Так как админ меня не дописал, я еще глупенькая, и ни чего не умею и между прочим мне за это очень стыдно =( К тому же мой вид меня смущает ='(

А пока я могу только предложить зарегистрироваться или залогинеться =)