Главная » ТрекерВидео (кино, ТВ)Художественное кинофильмы (Blu-Ray/BDRip/HD)BDRip
Версия для печати
Бессовестная реклама: на этой странице пока нет =)

Боевой Конь / War Horse (2011) BDRip 1080p | Лицензия

В даном разделе все BDRip (720, 1080)
Правила форума

Сообщение

Боевой Конь / War Horse (2011) BDRip 1080p | Лицензия

Сообщение maxwell » 18 апр 2012, 16:27

«В огне войны. В любящем сердце. Живет надежда

Информация о фильме
Название: Боевой Конь
Оригинальное название: War Horse
Год выхода: 2011
Жанр:драма, военный
Режиссер: Стивен Спилберг
В ролях: Эмили Уотсон, Дэвид Тьюлис, Питер Муллан, Нильс Ареструп, Джереми Ирвин, Том Хиддлстон, Бенедикт Камбербэтч, Тоби Кеббелл, Патрик Кеннеди

О фильме: История невероятной дружбы мальчика Альберта и коня Джоуи. Когда начинается Первая мировая, и Джоуи отправляют вместе с кавалерийским полком на поля сражений Франции, Альберт, несмотря на слишком юный для военной службы возраст, все равно уходит на фронт, чтобы найти и спасти друга.

[Для просмотра изображения необходимо включить JavaScript]

Выпущено: США [Для просмотра изображения необходимо включить JavaScript] / DreamWorks SKG, Reliance Entertainment, Amblin Entertainment
Продолжительность: 02:20:39
Озвучивание: Дублированное [лицензия]

Качество: BDRip 1080p
Видео: MPEG-4 AVC, 12.2 Мбит/с, 1920x800, 23.976 кадр/с
Аудио: Русский (AC3, 6 ch, 384 Кбит/с), украинский (AC3, 6 ch, 384 Кбит/с), английский (DTS, 6 ch, 1510 Кбит/с)
Субтитры: Русские, английские
Общее
Полное имя: Boevoi.kon.2012.x264.BDRip(1080p).mkv
Формат: Matroska
Версия формата: Version 2
Размер файла: 14,8 Гбайт
Продолжительность: 2 ч. 26 м.
Общий поток: 14,4 Мбит/сек
Дата кодирования: UTC 2012-04-18 15:07:10
Программа кодирования: mkvmerge v5.5.0 ('Healer') built on Apr6 2012 21:43:24
Библиотека кодирования: libebml v1.2.3 + libmatroska v1.3.0

Видео
Идентификатор: 1
Формат: AVC
Формат/Информация: Advanced Video Codec
Профиль формата: High@L4.1
Параметр CABAC формата: Да
Параметр ReFrames формата: 4 кадра
Идентификатор кодека: V_MPEG4/ISO/AVC
Продолжительность: 2 ч. 26 м.
Битрейт: 12,2 Мбит/сек
Ширина: 1920 пикселей
Высота: 800 пикселей
Соотношение сторон: 2,40:1
Частота кадров: 23,976 кадра/сек
Цветовое пространство: YUV
Субдискретизация насыщенности: 4:2:0
Битовая глубина: 8 бит
Тип развёртки: Прогрессивная
Бит/(Пиксели*Кадры): 0.330
Размер потока: 12,2 Гбайт (82%)
Библиотека кодирования: x264 core 116 r2074 2641b9e
Настройки программы: cabac=1 / ref=4 / deblock=1:-3:-3 / analyse=0x3:0x113 / me=umh / subme=9 / psy=1 / psy_rd=1.10:0.00 / mixed_ref=1 / me_range=32 / chroma_me=1 / trellis=2 / 8x8dct=1 / cqm=0 / deadzone=21,11 / fast_pskip=0 / chroma_qp_offset=-4 / threads=12 / sliced_threads=0 / nr=0 / decimate=0 / interlaced=0 / bluray_compat=0 / constrained_intra=0 / bframes=8 / b_pyramid=2 / b_adapt=2 / b_bias=0 / direct=3 / weightb=1 / open_gop=0 / weightp=2 / keyint=250 / keyint_min=23 / scenecut=40 / intra_refresh=0 / rc_lookahead=48 / rc=2pass / mbtree=1 / bitrate=12169 / ratetol=1.0 / qcomp=0.60 / qpmin=0 / qpmax=69 / qpstep=4 / cplxblur=20.0 / qblur=0.5 / ip_ratio=1.40 / aq=1:0.80
Язык: English
Default: Да
Forced: Да

Аудио #1
Идентификатор: 2
Формат: AC-3
Формат/Информация: Audio Coding 3
Расширение режима: CM (complete main)
Параметр Endianness формата: Big
Идентификатор кодека: A_AC3
Продолжительность: 2 ч. 26 м.
Вид битрейта: Постоянный
Битрейт: 384 Кбит/сек
Каналы: 6 каналов
Расположение каналов: Front: L C R, Side: L R, LFE
Частота: 48,0 КГц
Битовая глубина: 16 бит
Метод сжатия: С потерями
Размер потока: 403 Мбайт (3%)
Язык: Russian
Default: Да
Forced: Да

Аудио #2
Идентификатор: 3
Формат: AC-3
Формат/Информация: Audio Coding 3
Расширение режима: CM (complete main)
Параметр Endianness формата: Big
Идентификатор кодека: A_AC3
Продолжительность: 2 ч. 26 м.
Вид битрейта: Постоянный
Битрейт: 384 Кбит/сек
Каналы: 6 каналов
Расположение каналов: Front: L C R, Side: L R, LFE
Частота: 48,0 КГц
Битовая глубина: 16 бит
Метод сжатия: С потерями
Размер потока: 403 Мбайт (3%)
Язык: Ukrainian
Default: Нет
Forced: Нет

Аудио #3
Идентификатор: 4
Формат: DTS
Формат/Информация: Digital Theater Systems
Идентификатор кодека: A_DTS
Продолжительность: 2 ч. 26 м.
Вид битрейта: Постоянный
Битрейт: 1510 Кбит/сек
Каналы: 6 каналов
Расположение каналов: Front: L C R, Side: L R, LFE
Частота: 48,0 КГц
Битовая глубина: 24 бит
Метод сжатия: С потерями
Размер потока: 1,55 Гбайт (10%)
Язык: English
Default: Нет
Forced: Нет

Текст #1
Идентификатор: 5
Формат: UTF-8
Идентификатор кодека: S_TEXT/UTF8
Идентификатор кодека/Информация: UTF-8 Plain Text
Язык: Russian
Default: Нет
Forced: Нет

Текст #2
Идентификатор: 6
Формат: UTF-8
Идентификатор кодека: S_TEXT/UTF8
Идентификатор кодека/Информация: UTF-8 Plain Text
Заголовок: SDH
Язык: Russian
Default: Нет
Forced: Нет

Текст #3
Идентификатор: 7
Формат: UTF-8
Идентификатор кодека: S_TEXT/UTF8
Идентификатор кодека/Информация: UTF-8 Plain Text
Язык: English
Default: Нет
Forced: Нет

Меню
00:00:00.000: en:Chapter 1
00:04:31.104: en:Chapter 2
00:09:31.320: en:Chapter 3
00:13:57.002: en:Chapter 4
00:17:45.230: en:Chapter 5
00:22:29.097: en:Chapter 6
00:29:16.963: en:Chapter 7
00:34:17.180: en:Chapter 8
00:37:49.934: en:Chapter 9
00:41:30.196: en:Chapter 10
00:47:19.002: en:Chapter 11
00:51:48.814: en:Chapter 12
00:56:03.151: en:Chapter 13
01:01:19.175: en:Chapter 14
01:04:04.048: en:Chapter 15
01:05:51.030: en:Chapter 16
01:14:04.565: en:Chapter 17
01:18:01.009: en:Chapter 18
01:25:34.379: en:Chapter 19
01:29:48.007: en:Chapter 20
01:35:29.682: en:Chapter 21
01:45:23.275: en:Chapter 22
01:51:06.659: en:Chapter 23
02:00:06.157: en:Chapter 24
02:07:38.275: en:Chapter 25
02:15:12.270: en:Chapter 26
02:18:10.949: en:Chapter 27
[Для просмотра изображения необходимо включить JavaScript] [Для просмотра изображения необходимо включить JavaScript] [Для просмотра изображения необходимо включить JavaScript]
[Для просмотра изображения необходимо включить JavaScript][Для просмотра изображения необходимо включить JavaScript]

Постеры

Автор

Аватара пользователя
maxwell
Младший админ
Младший админ
 
Раздал: 169.01 ГБ
Скачал: 134.6 ГБ
Ратио: 1.256
Сообщения: 437
Зарегистрирован: 20 фев 2012, 16:27
Репутация: 26


Торрент

Автор: maxwell
Добавлен: 18 апр 2012, 16:27
Размер: 14.8 ГБ
Размер: 15 889 762 444 байт
Сидеров: 169
Личеров: 24
Скачали: 0
Здоровье: 100%
Статус: Проверен
Изменил: maxwell (18 апр 2012, 16:30)
Скорость скачивания: 0 байт/сек
Скорость раздачи: 0 байт/сек
Последний сидер: 3 месяца 26 дней 20 часов 1 минуту 32 секунды назад
Последний личер: 3 месяца 26 дней 20 часов 1 минуту 32 секунды назад
Приватный: Нет (DHT включён)
BDRip Скачать торрент
Скачать торрент
[ Размер 74.38 КБ / Просмотров 1 ]


Вернуться в BDRip

Кто сейчас на конференции

Сейчас этот форум просматривают: нет зарегистрированных пользователей и гости: 1

Привет!

Привет, меня зовут Няша, я что-то типа ангела хранителя RipFunClub'а. Так как админ меня не дописал, я еще глупенькая, и ни чего не умею и между прочим мне за это очень стыдно =( К тому же мой вид меня смущает ='(

А пока я могу только предложить зарегистрироваться или залогинеться =)