Главная » ТрекерВидео (кино, ТВ)Художественное кинофильмы (Blu-Ray/BDRip/HD)BDRip
Версия для печати
Бессовестная реклама: на этой странице пока нет =)

Крик. Квадрология Scream. Quadrology Уэс Крэйвен Wes Craven 1996, 1997, 2000, 2011 г., ужасы, триллер, криминал, детектив, BDRip, 1080р от R.G. 25 Кадр

В даном разделе все BDRip (720, 1080)
Правила форума

Сообщение

Крик. Квадрология Scream. Quadrology Уэс Крэйвен Wes Craven 1996, 1997, 2000, 2011 г., ужасы, триллер, криминал, детектив, BDRip, 1080р от R.G. 25 Кадр

Сообщение fReeSouL » 22 авг 2011, 07:47



Крик. Квадрология / Scream. Quadrology



Релиз от[Для просмотра изображения необходимо включить JavaScript]



Страна: США
Жанр: ужасы, триллер, детектив
Год выпуска: 1996
Продолжительность: 01:50:55
Перевод: Профессиональный (многоголосый закадровый) West Video
Перевод (2): Профессиональный (многоголосый закадровый) Premier Video
Перевод (3): Авторский (одноголосый закадровый) Живов
Cубтитры: русские
Оригинальная аудиодорожка: английский


Режиссер: Уэс Крэйвен / Wes Craven


В ролях: Дэвид Аркетт, Нив Кэмпбелл, Кортни Кокс, Скит Ульрих, Роуз МакГоун, Мэттью Лиллард, Джейми Кеннеди, У. Эрл Браун, Дрю Бэрримор, Джозеф Випп, Лоуренс Хехт, Роджер Л. Джексон


Описание

Новой жертвой телефонного маньяка из городка Вудсборо может стать ещё одна девушка — Сидни Прескотт. Год назад у неё была изнасилована и убита мать, теперь маньяк угрожает ей самой. Но в первой ночной схватке с убийцей, девушка смогла спастись. Полиция находит на месте покушения маску и плащ. Впрочем, такие маски можно купить в лавке ужасов, и проку для следствия от найденных улик нет никакого. Нет, вроде, и мотивов для убийств, если только не принять за главную версию, что маньяк — страстный поклонник фильмов ужасов и убивает свои жертвы только ради удовольствия. Убийца словно во время игры по телефону и самого убийства смотрит очередной ужастик.


Тип релиза: BDRip 1080p
Контейнер: MKV
Видео: MPEG-4 AVC Video / 11000 kbps / 1920x816 / 23,976 fps / High Profile 4.1
Аудио 1: Russian / Dolby Digital Audio / 5.1 / 48 kHz / 384 kbps MVO West Video
Аудио 2: Russian / Dolby Digital Audio / 2.0 / 48 kHz / 192 kbps MVO Premier Video
Аудио 3: Dolby Digital Audio Russian 192 kbps 2.0 / 48 kHz / 192 kbps AVO Живов
Аудио 4: English / DTS-HD Master Audio / 5.1 / 48 kHz / 1924 kbps / 16-bit (DTS Core: 5.1 / 48 kHz / 1509 kbps / 16-bit)
Формат субтитров: PGS
General
Unique ID : 210033986300919432958330417582846664051 (0x9E031308F7E4C28296E0534FEA565D73)
Complete name : H:\25 kadr\Scream.Trilogy\Scream.1996.BDRip.1080p.by_genkasper.mkv
Format : Matroska
File size : 10.6 GiB
Duration : 1h 50mn
Overall bit rate : 13.7 Mbps
Encoded date : UTC 2011-06-23 13:19:08
Writing application : mkvmerge v4.6.0 ('Still Crazy After All These Years') сборка от Mar 10 2011 02:50:32
Writing library : libebml v1.2.0 + libmatroska v1.1.0

Video
ID : 1
Format : AVC
Format/Info : Advanced Video Codec
Format profile : High@L4.1
Format settings, CABAC : Yes
Format settings, ReFrames : 4 frames
Codec ID : V_MPEG4/ISO/AVC
Duration : 1h 50mn
Bit rate : 11.0 Mbps
Width : 1 920 pixels
Height : 816 pixels
Display aspect ratio : 2.35:1
Frame rate : 23.976 fps
Color space : YUV
Chroma subsampling : 4:2:0
Bit depth : 8 bits
Scan type : Progressive
Bits/(Pixel*Frame) : 0.293
Stream size : 8.60 GiB (81%)
Writing library : x264 core 92 r1510 33d382a
Encoding settings : cabac=1 / ref=4 / deblock=1:-2:-1 / analyse=0x3:0x113 / me=umh / subme=9 / psy=1 / psy_rd=1.00:0.20 / mixed_ref=1 / me_range=16 / chroma_me=1 / trellis=2 / 8x8dct=1 / cqm=0 / deadzone=21,11 / fast_pskip=0 / chroma_qp_offset=-3 / threads=9 / sliced_threads=0 / nr=0 / decimate=0 / interlaced=0 / constrained_intra=0 / bframes=5 / b_pyramid=2 / b_adapt=2 / b_bias=0 / direct=3 / wpredb=1 / wpredp=2 / keyint=250 / keyint_min=25 / scenecut=40 / intra_refresh=0 / rc_lookahead=60 / rc=2pass / mbtree=1 / bitrate=11000 / ratetol=1.0 / qcomp=0.70 / qpmin=10 / qpmax=51 / qpstep=4 / cplxblur=20.0 / qblur=0.5 / vbv_maxrate=50000 / vbv_bufsize=50000 / ip_ratio=1.40 / aq=1:1.00 / nal_hrd=none
Language : English

Audio #1
ID : 2
Format : AC-3
Format/Info : Audio Coding 3
Mode extension : CM (complete main)
Codec ID : A_AC3
Duration : 1h 50mn
Bit rate mode : Constant
Bit rate : 384 Kbps
Channel(s) : 6 channels
Channel positions : Front: L C R, Side: L R, LFE
Sampling rate : 48.0 KHz
Bit depth : 16 bits
Compression mode : Lossy
Stream size : 305 MiB (3%)
Title : MVO West Video
Language : Russian

Audio #2
ID : 3
Format : AC-3
Format/Info : Audio Coding 3
Mode extension : CM (complete main)
Codec ID : A_AC3
Duration : 1h 50mn
Bit rate mode : Constant
Bit rate : 192 Kbps
Channel(s) : 2 channels
Channel positions : Front: L R
Sampling rate : 48.0 KHz
Bit depth : 16 bits
Compression mode : Lossy
Stream size : 152 MiB (1%)
Title : MVO Premier Video
Language : Russian

Audio #3
ID : 4
Format : AC-3
Format/Info : Audio Coding 3
Mode extension : CM (complete main)
Codec ID : A_AC3
Duration : 1h 50mn
Bit rate mode : Constant
Bit rate : 192 Kbps
Channel(s) : 2 channels
Channel positions : Front: L R
Sampling rate : 48.0 KHz
Bit depth : 16 bits
Compression mode : Lossy
Stream size : 152 MiB (1%)
Title : Живов
Language : Russian

Audio #4
ID : 5
Format : DTS
Format/Info : Digital Theater Systems
Format profile : MA / Core
Codec ID : A_DTS
Duration : 1h 50mn
Bit rate mode : Variable
Bit rate : 1 561 Kbps / 1 510 Kbps
Channel(s) : 6 channels
Channel positions : Front: L C R, Side: L R, LFE
Sampling rate : 48.0 KHz
Bit depth : 16 bits
Compression mode : Lossless / Lossy
Title : оригинал
Language : English

Text
ID : 6
Format : PGS
Codec ID : S_HDMV/PGS
Codec ID/Info : The same subtitle format used on BDs/HD-DVDs
Language : Russian
[Для просмотра изображения необходимо включить JavaScript] [Для просмотра изображения необходимо включить JavaScript] [Для просмотра изображения необходимо включить JavaScript] [Для просмотра изображения необходимо включить JavaScript]


Страна: США
Жанр: ужасы, триллер, криминал, детектив
Год выпуска: 1997
Продолжительность: 02:00:13
Перевод: Профессиональный (дублированный)
Оригинальная аудиодорожка: английский


Режиссер: Уэс Крэйвен / Wes Craven


В ролях: Дэвид Аркетт, Нив Кэмпбелл, Кортни Кокс, Сара Мишель Геллар, Джэми Кеннеди, Лори Меткалф, Элис Нил, Джерри О'Коннелл, Тимоти Олифант, Джада Пинкетт Смит


Описание: Прошло два года после кровавой бойни в Вудсборо. Сидни Прескотт поступила в колледж, уехав прочь от безумных воспоминаний. Но прошлое вновь настигает ее: нашумевшая история стала книгой — бестселлером Гэйл Уэзерс, а теперь еще вышел фильм о тех самых событиях, всколыхнувший новую волну террора. И ужас ожил снова, и снова в каждом встречном видится убийца!..


Тип релиза: BDRip 1080p
Контейнер: MKV
Видео: MPEG-4 AVC Video ~11000 kbps 1920х816 / 23,976 fps / High Profile 4.1
Аудио: Russian (AC3, 5.1 / 48 kHz / 384 kbps)
Аудио 2: English DTS Core: 5.1 / 48 kHz / 1509 kbps / 24-bit
General
Unique ID : 252221930270629569476384728040657457257 (0xBDC02D43AD96668AB397036C2B151069)
Complete name : H:\25 kadr\Scream.Trilogy\Scream.2.1997.BDRip.1080p.by_genkasper.mkv
Format : Matroska
File size : 12.7 GiB
Duration : 2h 0mn
Overall bit rate : 15.1 Mbps
Encoded date : UTC 2011-06-26 14:56:53
Writing application : mkvmerge v4.6.0 ('Still Crazy After All These Years') сборка от Mar 10 2011 02:50:32
Writing library : libebml v1.2.0 + libmatroska v1.1.0

Video
ID : 1
Format : AVC
Format/Info : Advanced Video Codec
Format profile : High@L4.1
Format settings, CABAC : Yes
Format settings, ReFrames : 4 frames
Codec ID : V_MPEG4/ISO/AVC
Duration : 2h 0mn
Bit rate : 12.9 Mbps
Nominal bit rate : 11.0 Mbps
Width : 1 920 pixels
Height : 816 pixels
Display aspect ratio : 2.35:1
Frame rate : 23.976 fps
Color space : YUV
Chroma subsampling : 4:2:0
Bit depth : 8 bits
Scan type : Progressive
Bits/(Pixel*Frame) : 0.343
Stream size : 10.8 GiB (85%)
Writing library : x264 core 92 r1510 33d382a
Encoding settings : cabac=1 / ref=4 / deblock=1:-2:-1 / analyse=0x3:0x113 / me=umh / subme=9 / psy=1 / psy_rd=1.00:0.20 / mixed_ref=1 / me_range=16 / chroma_me=1 / trellis=2 / 8x8dct=1 / cqm=0 / deadzone=21,11 / fast_pskip=0 / chroma_qp_offset=-3 / threads=9 / sliced_threads=0 / nr=0 / decimate=0 / interlaced=0 / constrained_intra=0 / bframes=5 / b_pyramid=2 / b_adapt=2 / b_bias=0 / direct=3 / wpredb=1 / wpredp=2 / keyint=250 / keyint_min=25 / scenecut=40 / intra_refresh=0 / rc_lookahead=60 / rc=2pass / mbtree=1 / bitrate=11000 / ratetol=1.0 / qcomp=0.70 / qpmin=10 / qpmax=51 / qpstep=4 / cplxblur=20.0 / qblur=0.5 / vbv_maxrate=50000 / vbv_bufsize=50000 / ip_ratio=1.40 / aq=1:1.00 / nal_hrd=none
Language : English

Audio #1
ID : 2
Format : AC-3
Format/Info : Audio Coding 3
Mode extension : CM (complete main)
Codec ID : A_AC3
Duration : 2h 0mn
Bit rate mode : Constant
Bit rate : 384 Kbps
Channel(s) : 6 channels
Channel positions : Front: L C R, Side: L R, LFE
Sampling rate : 48.0 KHz
Bit depth : 16 bits
Compression mode : Lossy
Delay relative to video : 1s 950ms
Stream size : 330 MiB (3%)
Title : Dub
Language : Russian

Audio #2
ID : 3
Format : DTS
Format/Info : Digital Theater Systems
Format profile : MA / Core
Codec ID : A_DTS
Duration : 2h 0mn
Bit rate mode : Variable
Bit rate : 1 576 Kbps / 1 510 Kbps
Channel(s) : 6 channels
Channel positions : Front: L C R, Side: L R, LFE
Sampling rate : 48.0 KHz
Bit depth : 24 bits
Compression mode : Lossless / Lossy
Language : English
[Для просмотра изображения необходимо включить JavaScript] [Для просмотра изображения необходимо включить JavaScript] [Для просмотра изображения необходимо включить JavaScript] [Для просмотра изображения необходимо включить JavaScript]


Год выпуска: 2000
Страна: США
Жанр: ужасы, триллер, детектив
Продолжительность: 01:56:33
Перевод: Профессиональный (полное дублирование)


Режиссер: Уэс Крэйвен / Wes Craven


В ролях: Дэвид Аркетт, Нив Кэмпбелл, Кортни Кокс, Сара Мишель Геллар, Джэми Кеннеди, Лори Меткалф, Элис Нил, Джерри О'Коннелл, Тимоти Олифант, Джада Пинкетт Смит


Описание

Как и должно было случиться, ужасные происшествия в Вудсборо стали идеальным материалом для Голливуда: там снималась уже третья серия фильма "Удар ножом". Тем временем Сидни ведет уединенный образ жизни в Северной Калифорнии, где и узнает о новых чудовищных убийствах. Прошлое вновь назначает ей смертельную встречу, и на этот раз круг должен замкнуться...


Качество: BDRip 1080p
Формат: MKV
Видео: MPEG-4 AVC Video ~11000 kbps 1920х808 / 23,976 fps / High Profile 4.1
Аудио 1: Russian AC3, 5.1 ch ch, 384 Кбит/с, 48,0 КГц
Аудио 2: English DTS-HD, 5.1 ch, 1510 Кбит/с, 48,0 КГц
General
Unique ID : 226816544186557650875855919032189405593 (0xAAA34705DB95A0399503C15770314999)
Complete name : H:\25 kadr\Scream.Trilogy\Scream.3.2000.BDRip.1080p.by_genkasper.mkv
Format : Matroska
File size : 12.7 GiB
Duration : 1h 56mn
Overall bit rate : 15.6 Mbps
Encoded date : UTC 2011-06-26 16:32:53
Writing application : mkvmerge v4.6.0 ('Still Crazy After All These Years') сборка от Mar 10 2011 02:50:32
Writing library : libebml v1.2.0 + libmatroska v1.1.0

Video
ID : 1
Format : AVC
Format/Info : Advanced Video Codec
Format profile : High@L4.1
Format settings, CABAC : Yes
Format settings, ReFrames : 4 frames
Codec ID : V_MPEG4/ISO/AVC
Duration : 1h 56mn
Bit rate : 12.4 Mbps
Nominal bit rate : 11.0 Mbps
Width : 1 920 pixels
Height : 808 pixels
Display aspect ratio : 2.35:1
Frame rate : 23.976 fps
Color space : YUV
Chroma subsampling : 4:2:0
Bit depth : 8 bits
Scan type : Progressive
Bits/(Pixel*Frame) : 0.333
Stream size : 10.1 GiB (79%)
Writing library : x264 core 92 r1510 33d382a
Encoding settings : cabac=1 / ref=4 / deblock=1:-2:-1 / analyse=0x3:0x113 / me=umh / subme=9 / psy=1 / psy_rd=1.00:0.20 / mixed_ref=1 / me_range=16 / chroma_me=1 / trellis=2 / 8x8dct=1 / cqm=0 / deadzone=21,11 / fast_pskip=0 / chroma_qp_offset=-3 / threads=9 / sliced_threads=0 / nr=0 / decimate=0 / interlaced=0 / constrained_intra=0 / bframes=5 / b_pyramid=2 / b_adapt=2 / b_bias=0 / direct=3 / wpredb=1 / wpredp=2 / keyint=250 / keyint_min=25 / scenecut=40 / intra_refresh=0 / rc_lookahead=60 / rc=2pass / mbtree=1 / bitrate=11000 / ratetol=1.0 / qcomp=0.70 / qpmin=10 / qpmax=51 / qpstep=4 / cplxblur=20.0 / qblur=0.5 / vbv_maxrate=50000 / vbv_bufsize=50000 / ip_ratio=1.40 / aq=1:1.00 / nal_hrd=none
Language : English

Audio #1
ID : 2
Format : AC-3
Format/Info : Audio Coding 3
Mode extension : CM (complete main)
Codec ID : A_AC3
Duration : 1h 56mn
Bit rate mode : Constant
Bit rate : 384 Kbps
Channel(s) : 6 channels
Channel positions : Front: L C R, Side: L R, LFE
Sampling rate : 48.0 KHz
Bit depth : 16 bits
Compression mode : Lossy
Delay relative to video : 1s 500ms
Stream size : 320 MiB (2%)
Title : Русский
Language : Russian

Audio #2
ID : 3
Format : DTS
Format/Info : Digital Theater Systems
Format profile : MA / Core
Codec ID : A_DTS
Duration : 1h 56mn
Bit rate mode : Variable
Bit rate : 2 518 Kbps / 1 510 Kbps
Channel(s) : 6 channels
Channel positions : Front: L C R, Side: L R, LFE
Sampling rate : 48.0 KHz
Bit depth : 24 bits
Compression mode : Lossless / Lossy
Language : English

[Для просмотра изображения необходимо включить JavaScript] [Для просмотра изображения необходимо включить JavaScript] [Для просмотра изображения необходимо включить JavaScript] [Для просмотра изображения необходимо включить JavaScript]


Страна: США
Жанр: ужасы, триллер, детектив
Год выпуска: 2011
Продолжительность: 01:50:38
Перевод: Профессиональный (полное дублирование)


Режиссер: Уэс Крэйвен / Wes Craven


В ролях: Дэвид Аркетт, Нив Кэмпбелл, Кортни Кокс, Эмма Робертс, Хайден Панеттьери, Рори Калкин, Нико Торторелла, Мариэль Джаффе, Марли Шелтон, Мэри МакДоннелл


Описание

Сидни Прескотт последние несколько лет провела в относительной тишине и покое. Теперь она работает методистом в Вудсборгской Средней Школе, ее Альма Матер. Жизнь потихоньку налаживается, вдали от вспышек и видеокамер папарацци. Но когда находят труп одного из студентов, мир Сидни Прескотт вновь начинает рушиться. Всему виной возродившийся убийца в маске «Лицо Призрака».


Тип релиза: BDRip 1080p
Контейнер: MKV
Видео: MPEG-4 AVC Video / 9000 kbps / 1920x800 / 23,976 fps / High Profile 4.1
Аудио 1: Russian / AC3 / 5.1 / 48 kHz / 448 kbps
Аудио 2: English / DTS / 5.1 / 48 kHz / 1510 kbps
General
Unique ID : 243327273739331693883277150356392811822 (0xB70F20D6D4DEA2AC9A9C5CEB06369D2E)
Complete name : H:\25 kadr\Scream.Quadrology.by_genkasper\Scream.4.2011.BDRip.1080p.by_genkasper.mkv
Format : Matroska
File size : 8.75 GiB
Duration : 1h 50mn
Overall bit rate : 11.3 Mbps
Encoded date : UTC 2011-08-21 21:09:20
Writing application : mkvmerge v4.7.0 ('Just Like You Imagined') сборка от Apr 21 2011 01:13:14
Writing library : libebml v1.2.0 + libmatroska v1.1.0

Video
ID : 1
Format : AVC
Format/Info : Advanced Video Codec
Format profile : High@L4.1
Format settings, CABAC : Yes
Format settings, ReFrames : 4 frames
Codec ID : V_MPEG4/ISO/AVC
Duration : 1h 50mn
Bit rate : 9 000 Kbps
Width : 1 920 pixels
Height : 800 pixels
Display aspect ratio : 2.40:1
Frame rate : 24.000 fps
Color space : YUV
Chroma subsampling : 4:2:0
Bit depth : 8 bits
Scan type : Progressive
Bits/(Pixel*Frame) : 0.244
Stream size : 7.02 GiB (80%)
Writing library : x264 core 115 r1936 7a9e08d
Encoding settings : cabac=1 / ref=4 / deblock=1:-1:-1 / analyse=0x3:0x133 / me=umh / subme=9 / psy=1 / psy_rd=1.00:0.10 / mixed_ref=1 / me_range=16 / chroma_me=1 / trellis=2 / 8x8dct=1 / cqm=0 / deadzone=21,11 / fast_pskip=1 / chroma_qp_offset=-3 / threads=9 / sliced_threads=0 / nr=0 / decimate=1 / interlaced=0 / bluray_compat=0 / constrained_intra=0 / bframes=9 / b_pyramid=2 / b_adapt=2 / b_bias=0 / direct=3 / weightb=1 / open_gop=0 / weightp=2 / keyint=250 / keyint_min=24 / scenecut=40 / intra_refresh=0 / rc_lookahead=50 / rc=2pass / mbtree=1 / bitrate=9000 / ratetol=1.0 / qcomp=0.70 / qpmin=0 / qpmax=69 / qpstep=4 / cplxblur=20.0 / qblur=0.5 / ip_ratio=1.40 / aq=1:1.00
Language : English

Audio #1
ID : 2
Format : AC-3
Format/Info : Audio Coding 3
Mode extension : CM (complete main)
Codec ID : A_AC3
Duration : 1h 50mn
Bit rate mode : Constant
Bit rate : 448 Kbps
Channel(s) : 6 channels
Channel positions : Front: L C R, Side: L R, LFE
Sampling rate : 48.0 KHz
Bit depth : 16 bits
Compression mode : Lossy
Delay relative to video : 24ms
Stream size : 355 MiB (4%)
Language : Russian

Audio #2
ID : 3
Format : DTS
Format/Info : Digital Theater Systems
Format profile : MA / Core
Codec ID : A_DTS
Duration : 1h 50mn
Bit rate mode : Variable
Bit rate : 1 561 Kbps / 1 510 Kbps
Channel(s) : 6 channels
Channel positions : Front: L C R, Side: L R, LFE
Sampling rate : 48.0 KHz
Bit depth : 16 bits
Compression mode : Lossless / Lossy
Delay relative to video : 3ms
Language : English
[Для просмотра изображения необходимо включить JavaScript] [Для просмотра изображения необходимо включить JavaScript] [Для просмотра изображения необходимо включить JavaScript] [Для просмотра изображения необходимо включить JavaScript]

Пусть тебе вернется в двойне то,что ты желаешь мне.

[Для просмотра изображения необходимо включить JavaScript]

Постеры

Автор

Аватара пользователя
fReeSouL
Администратор
Администратор
 
Раздал: 22.9 ТБ
Скачал: 5.75 ТБ
Ратио: 3.980
Сообщения: 1315
Зарегистрирован: 21 фев 2010, 14:12
Репутация: 192
Откуда: Ukraine


Торрент

Автор: fReeSouL
Добавлен: 22 авг 2011, 07:47
Размер: 44.78 ГБ
Размер: 48 077 958 261 байт
Сидеров: 0
Личеров: 3
Скачали: 0
Здоровье: ???%
Статус: Проверен
Изменил: fReeSouL (22 авг 2011, 08:14)
Скорость скачивания: 0 байт/сек
Скорость раздачи: 0 байт/сек
Последний сидер: Нет
Последний личер: 1 месяц 26 дней 16 часов 27 минут 45 секунд назад
Приватный: Нет (DHT включён)
BDRip Скачать торрент
Скачать торрент
[ Размер 225.32 КБ / Просмотров 16 ]


Вернуться в BDRip

Кто сейчас на конференции

Сейчас этот форум просматривают: нет зарегистрированных пользователей и гости: 2

Привет!

Привет, меня зовут Няша, я что-то типа ангела хранителя RipFunClub'а. Так как админ меня не дописал, я еще глупенькая, и ни чего не умею и между прочим мне за это очень стыдно =( К тому же мой вид меня смущает ='(

А пока я могу только предложить зарегистрироваться или залогинеться =)