Главная » ТрекерВидео (кино, ТВ)Художественное кинофильмы (Blu-Ray/BDRip/HD)BDRip
Версия для печати
Бессовестная реклама: на этой странице пока нет =)

Что скрывает ложь / Trespass (2011) BDRip 1080p

В даном разделе все BDRip (720, 1080)
Правила форума

Сообщение

Что скрывает ложь / Trespass (2011) BDRip 1080p

Сообщение Петрович » 16 дек 2011, 17:40

Название: Что скрывает ложь
Оригинальное название: Trespass
Год выхода: 2011
Жанр: Триллер, драма, криминал
Режиссер: Джоэл Шумахер
В ролях: Николас Кейдж, Николь Кидман, Бен Мендельсон, Лиана Либерато, Кэм Жиганде, Джордана Спиро, Дэш Майок, Эмили Миде, Нико Торторелла, Брэндон Белнап


О фильме:
История повествует о муже с женой, которых взяла в заложники четверка жестоких преступников, ищущих легкий способ заработать. Ситуация принимает новый оборот, когда раскрываются предательство и обман.


Страна: США
Студия: Millennium Films
Продолжительность: 01:30:42
Перевод: Любительский (двухголосый закадровый) [JRG], Оригинал

Премьера (мир) - 14 сентября 2011
Премьера (РФ) - 8 декабря 2011
Бюджет - $35 000 000


Кодек: x264
Качество: BDRip 1080p [рип с Blu-Ray Disc 1080p | HDChina]
Видео: x264, 1920x800, 23.976 fps, ~5789 kbps, 0.157 bit/pix
Аудио 1: 48 kHz, AC3, 2 ch, ~192.00 kbps avg | DVO
Аудио 2: 48 kHz, AC3, 3/2 (L,C,R,l,r) + LFE ch, ~640.00 kbps avg | Оригинал
Субтитры: Английские (Full, SDH)
Format : Matroska
Format version : Version 2
File size : 4.19 GiB
Duration : 1h 30mn
Overall bit rate : 6 617 Kbps
Movie name : Reliz by FFmpeg
Writing application : mkvmerge v4.9.1 ('Ich will') сборка от Jul 11 2011 23:53:15
Writing library : libebml v1.2.1 + libmatroska v1.1.1
Video #1
ID : 1
Format : AVC
Format/Info : Advanced Video Codec
Format profile : High@L4.1
Format settings, CABAC : Yes
Format settings, ReFrames : 4 frames
Codec ID : V_MPEG4/ISO/AVC
Duration : 1h 30mn
Bit rate : 5 789 Kbps
Width : 1 920 pixels
Height : 800 pixels
Display aspect ratio : 2.40:1
Frame rate : 23.976 fps
Color space : YUV
Chroma subsampling : 4:2:0
Bit depth : 8 bits
Scan type : Progressive
Bits/(Pixel*Frame) : 0.157
Stream size : 3.58 GiB (85%)
Writing library : x264 core 116 r2044 392e762
Encoding settings : cabac=1 / ref=4 / deblock=1:-2:-2 / analyse=0x3:0x113 / me=umh / subme=9 / psy=1 / psy_rd=1.00:0.00 / mixed_ref=1 / me_range=32 / chroma_me=1 / trellis=2 / 8x8dct=1 / cqm=0 / deadzone=21,11 / fast_pskip=0 / chroma_qp_offset=-2 / threads=6 / sliced_threads=0 / nr=0 / decimate=1 / interlaced=0 / bluray_compat=0 / constrained_intra=0 / bframes=4 / b_pyramid=2 / b_adapt=2 / b_bias=0 / direct=3 / weightb=1 / open_gop=0 / weightp=2 / keyint=240 / keyint_min=24 / scenecut=40 / intra_refresh=0 / rc_lookahead=60 / rc=2pass / mbtree=1 / bitrate=5789 / ratetol=1.0 / qcomp=0.60 / qpmin=0 / qpmax=69 / qpstep=4 / cplxblur=20.0 / qblur=0.5 / ip_ratio=1.40 / aq=1:1.00
Language : English
Audio #2
ID : 2
Format : AC-3
Format/Info : Audio Coding 3
Mode extension : CM (complete main)
Codec ID : A_AC3
Duration : 1h 30mn
Bit rate mode : Constant
Bit rate : 192 Kbps
Channel(s) : 2 channels
Channel positions : Front: L R
Sampling rate : 48.0 KHz
Bit depth : 16 bits
Compression mode : Lossy
Delay relative to video : 600ms
Stream size : 125 MiB (3%)
Title : DVO
Language : Russian
Audio #3
ID : 3
Format : AC-3
Format/Info : Audio Coding 3
Mode extension : CM (complete main)
Codec ID : A_AC3
Duration : 1h 30mn
Bit rate mode : Constant
Bit rate : 640 Kbps
Channel(s) : 6 channels
Channel positions : Front: L C R, Side: L R, LFE
Sampling rate : 48.0 KHz
Bit depth : 16 bits
Compression mode : Lossy
Stream size : 415 MiB (10%)
Title : Original
Language : English
Text #4
ID : 4
Format : UTF-8
Codec ID : S_TEXT/UTF8
Codec ID/Info : UTF-8 Plain Text
Title : Full
Language : English
Text #5
ID : 5
Format : UTF-8
Codec ID : S_TEXT/UTF8
Codec ID/Info : UTF-8 Plain Text
Title : SDH
Language : English

Постеры

Скриншоты

Автор

Петрович
 


Торрент

Автор: Петрович
Добавлен: 16 дек 2011, 17:36
Размер: 4.19 ГБ
Размер: 4 501 267 622 байт
Сидеров: 0
Личеров: 1
Скачали: 2
Здоровье: ???%
Статус: Проверен
Изменил: fReeSouL (16 дек 2011, 19:34)
Скорость скачивания: 0 байт/сек
Скорость раздачи: 0 байт/сек
Последний сидер: 5 лет 22 дня 18 часов 56 минут 39 секунд назад
Последний личер: 1 месяц 26 дней 16 часов 41 минуту 10 секунд назад
Приватный: Нет (DHT включён)
BDRip Скачать торрент
Скачать торрент
[ Размер 21.35 КБ / Просмотров 5 ]


Вернуться в BDRip

Кто сейчас на конференции

Сейчас этот форум просматривают: нет зарегистрированных пользователей и гости: 2

Привет!

Привет, меня зовут Няша, я что-то типа ангела хранителя RipFunClub'а. Так как админ меня не дописал, я еще глупенькая, и ни чего не умею и между прочим мне за это очень стыдно =( К тому же мой вид меня смущает ='(

А пока я могу только предложить зарегистрироваться или залогинеться =)