Главная » ТрекерМузыкаРок музыка / Rock MusicЗарубежный РокRockabilly, Psychobilly, Rock'n'Roll (lossless)
Версия для печати
Бессовестная реклама: на этой странице пока нет =)

The Legendary Pink Dots - Дискография (72 альбома, 82 CD) - 1980-2011, FLAC (Psychedelic Rock, Experimental), lossless

Сообщение

The Legendary Pink Dots - Дискография (72 альбома, 82 CD) - 1980-2011, FLAC (Psychedelic Rock, Experimental), lossless

Сообщение Torrnado » 10 окт 2012, 11:51

[Для просмотра изображения необходимо включить JavaScript]
Lossless Group представляет:
The Legendary Pink Dots - Дискография
Жанр: Psychedelic Rock, Experimental
Год выпуска диска: 1980-2011
Страна: Великобритания-Голландия-Канада
Производитель диска: Австрия, Бельгия, Великобритания, Германия, Голландия, Мексика, Польша, Россия, США, Франция
Аудио кодек: FLAC
Тип рипа: image+.cue
Битрейт аудио: lossless
Продолжительность: 72 альбома 82 CD
Метод рипа: EAC test+copy
Источник (Релизер): hexonut [Lossless Group, rutracker.org]. Все рипы собственные, с фирменных/оригинальных дисков. Некоторые диски - официальные CD-R, никогда не издававшиеся фабрично.
Спасибо fiendover за предоставленные диски: первопрессы Greetings 9 и Four Days. Для этих дисков нет сканов, только обложки (не было возможности отсканировать).
Остальное из личной коллекции.
Комплектация: Для каждого диска: FLAC со встроенным cue, отдельные cue для wav и flac, .toc file для cdrdao, данные с Enhanced CD, полный набор сканов (кроме указанных выше), логи.
Дополнительная информация:
Группа The Legendary Pink Dots родилась звездным вечером 1980 года под волшебными небесами над Стоунхенджем, когда ее основатели Edward Ka-Spel, Philip Knight и April Iliffe бродили по музыкальному фестивалю посередине пустынного поля. Они были так вдохновлены тем, чему были свидетелями, что немедленно начали писать свою собственную музыку. В течение нескольких коротких месяцев они выбрали имя для группы и записали свой первый альбом Only Dreaming, выпущенный только на кассете. Движимые ненасытной страстью к музыке, The Dots старательно продолжали начатое дело. В течение следующей пары лет они выпустили серию "кассетных" альбомов на различных небольших независимых лейблах. В 1982 был, наконец, записан первый "официальный" альбом, "Brighter Now"; LP "Curse" и первые концертные выступления группы последовали в 1983. "The Dots" постепенно стали занимать подобающее им в музыкальном смысле место, что было подтверждено выпуском в 1984 году этапного для группы LP "The Tower". По необъяснимой причине после выпуска "The Tower" состав начал постоянно меняться, и множество музыкантов приходили во время записей нескольких последующих альбомов. Возможно именно по этой причине "The Dots" никогда не имели определенного "выработанного" звучания, и каждый альбом был для группы вылазкой в "неизведанные музыкальные земли". До конца 80х "The Dots" приобрели прочный "культовый" статус по всему миру, в особенносте в Северной Америке и Восточной Европе. Саксофонист Niels Van Hoorn надолго обосновался в постоянно меняющемся составе, группа подписала контракт с фирмой Play It Again Sam Records в Европе, и записала такие, без сомнения, классические альбомы, как Any Day Now, The Golden Age и Crushed Velvet Apocalypse. В начале 90-ых был выпущен альбом The Maria Dimension, который до сих пор остается самым продаваемым в каталоге The Dots. После выхода этого LP Ryan Moore и Martijn de Kleer стали постоянными участниками, группа в очередной раз изменилась и записала Shadow Weaver и Malachai в 1992 и 1993 соответственно. Хотя эти альбомы нашли благожелательный отклик в прессе и были восторженно приняты поклонниками, The Dots было трудно на протяжении столь долгого времени поддерживать отношения со своим лейблом на творческом уровне. В 1994 они "разорвали узы", связывавшие их с Play It Again Sam Records. Следующей фирмой грамзаписи The Dots стала американская Soleilmoon Recordings, и группа успешно гастролировала по Северной Америке на протяжении 90-ых. Они также продолжали выпускать необычайно популярные альбомы, такие как Hallway of the Gods и Nemesis Online. В 2000 году, после очередного успешного североамериканского турне в поддержку только что выпущенного CD Perfect Mystery, The Pink Dots распрощались со старожилом Ryan Moore. После почти десятилетнего пребывания в группе он ушел, чтобы реализовывать собственные музыкальные устремления вместе с The Twilight Circus Dub Sound System. Примерно в это же время были установлены партнерские отношения с фирмой Beta-Lactam Ring Records, в результате чего плодовитый Ka-Spel выпустил несколько эзотерических сольных альбомов через этот лейбл. Остальные участники группы последовали его примеру. После круговорота сольных проетов каждого из The Pink Dots в 2001 и 2002 годах настал период размышлений, группа реформировалась и записала "парные" All The King's Horses и All The King's Men, одни из самых спокойных, мелодичных альбомов в каталоге The Dots. И каждый из них продолжает нести преданным поклонникам оптимистическое пожелание группы:
ПОЙ, ПОКА МОЖЕШЬ!
Вот так и следующие 23 года!
Аннотация из сборника I Did Not Inhale.
The Legendary Pink Dots в самом деле легендарны. Более того - они уникальны и несомненно представляют собой объект культа. Стиль группы настолько своеобразен, что не поддается имитации. Это волшебное варево из психоделии, электроники, индастриал и, как это ни странно, сентиментальных поп- и фолк-песенок. Очень затягивает.А. К. Троицкий
Треклист:
Albums
1982-Brighter Now
Лейбл: The Terminal Kaleidoscope / Play It Again Sam
Страна-производитель диска: Бельгия / Австрия
Год издания диска: 1982
Номер по каталогу: TK 001-CD

01. Red Castles (03:28)
02. Louder After 6 (05:06)
03. The Wedding (04:07)
04. Apocalypse Then (07:24)
05. Legacy (03:17)
06. City Ghosts (05:44)
07. Hanging Gardens (06:13)
08. Soma Bath (03:49)
09. Premonition 4 (05:20)
EAC Log
Код: Выделить всё
Exact Audio Copy V1.0 beta 1 from 15. November 2010

EAC extraction logfile from 22. March 2011, 22:06

Legendary Pink Dots / Brighter Now

Used drive: TEACDVD+-RW DVW28SLCAdapter: 0ID: 0

Read mode: Secure
Utilize accurate stream : Yes
Defeat audio cache: Yes
Make use of C2 pointers : No

Read offset correction: 48
Overread into Lead-In and Lead-Out: No
Fill up missing offset samples with silence : Yes
Delete leading and trailing silent blocks: No
Null samples used in CRC calculations: Yes
Used interface: Native Win32 interface for Win NT & 2000

Used output format : Internal WAV Routines
Sample format: 44.100 Hz; 16 Bit; Stereo

TOC of the extracted CD

Track |Start|Length| Start sector | End sector
---------------------------------------------------------
1|0:00.00 |3:28.20 |0|15619
2|3:28.20 |5:06.62 |15620|38631
3|8:35.07 |4:06.50 |38632|57131
4| 12:41.57 |7:24.33 |57132|90464
5| 20:06.15 |3:18.02 |90465|105316
6| 23:24.17 |5:42.65 |105317|131031
7| 29:07.07 |6:14.43 |131032|159124
8| 35:21.50 |3:48.32 |159125|176256
9| 39:10.07 |5:19.05 |176257|200186

Range status and errors

Selected range

Filename Z:SeedingLegendary Pink DotsAlbums1982-Brighter Nowbrighternow.wav

Peak level 93.9 %
Extraction speed 0.3 X
Range quality 99.9 %
Test CRC 09B6CAD4
Copy CRC 09B6CAD4
Copy OK

No errors occurred

AccurateRip summary

Track1accurately ripped (confidence 6)[23D6EA2E]
Track2accurately ripped (confidence 6)[6DFEA90D]
Track3accurately ripped (confidence 6)[167D729C]
Track4accurately ripped (confidence 6)[4A4E428B]
Track5accurately ripped (confidence 6)[E841D320]
Track6accurately ripped (confidence 6)[6331DC93]
Track7accurately ripped (confidence 6)[9D5219FB]
Track8accurately ripped (confidence 5)[AAD96E19]
Track9accurately ripped (confidence 5)[FAD06CFD]

All tracks accurately ripped

End of status report
1983-Curse
Лейбл: The Terminal Kaleidoscope / Play It Again Sam
Страна-производитель диска: Бельгия / Австрия
Год издания диска: 1983
Номер по каталогу: TK 002-CD

01. Love Puppets (06:57)
02. Wall Purges Night (04:16)
03. Lisa's Party (03:44)
04. Arzhklahh Olgevezh! (06:15)
05. TITLE "Prmptje Kurss" (01:59)
06. Waving At The Aeroplanes (03:11)
07. Hiding (01:00)
08. Dolls' House (07:52)
09. The Palace Of Love (05:17)
10. Stoned Obituary (06:32)
EAC Log
Код: Выделить всё
Exact Audio Copy V1.0 beta 1 from 15. November 2010

EAC extraction logfile from 22. March 2011, 23:00

The Legendary Pink Dots / Curse

Used drive: HL-DT-STDVD-ROM GDR8082NAdapter: 1ID: 0

Read mode: Secure
Utilize accurate stream : Yes
Defeat audio cache: Yes
Make use of C2 pointers : No

Read offset correction: 102
Overread into Lead-In and Lead-Out: No
Fill up missing offset samples with silence : Yes
Delete leading and trailing silent blocks: No
Null samples used in CRC calculations: Yes
Used interface: Installed external ASPI interface

Used output format : Internal WAV Routines
Sample format: 44.100 Hz; 16 Bit; Stereo

TOC of the extracted CD

Track |Start|Length| Start sector | End sector
---------------------------------------------------------
1|0:00.00 |6:56.47 |0|31246
2|6:56.47 |4:16.20 |31247|50466
3| 11:12.67 |3:43.40 |50467|67231
4| 14:56.32 |6:15.35 |67232|95391
5| 21:11.67 |2:02.40 |95392|104581
6| 23:14.32 |3:07.73 |104582|118679
7| 26:22.30 |1:02.30 |118680|123359
8| 27:24.60 |7:50.10 |123360|158619
9| 35:14.70 |5:16.72 |158620|182391
10| 40:31.67 |6:31.45 |182392|211761

Range status and errors

Selected range

Filename Z:datamp3SeedingLegendary Pink DotsAlbums1983-Cursecurse.wav

Peak level 100.0 %
Extraction speed 0.4 X
Range quality 100.0 %
Test CRC A8F91BC4
Copy CRC A8F91BC4
Copy OK

No errors occurred

AccurateRip summary

Track1accurately ripped (confidence 5)[7853E9DC]
Track2accurately ripped (confidence 5)[94ED283F]
Track3accurately ripped (confidence 5)[803097BF]
Track4accurately ripped (confidence 5)[FB00F1FD]
Track5accurately ripped (confidence 5)[5D3D3CD3]
Track6accurately ripped (confidence 5)[38AF0498]
Track7accurately ripped (confidence 5)[F070A9AF]
Track8accurately ripped (confidence 5)[9F7DB529]
Track9accurately ripped (confidence 5)[F04A467E]
Track 10accurately ripped (confidence 5)[1DE98D78]

All tracks accurately ripped

End of status report
1983-The Tower
Лейбл: The Terminal Kaleidoscope / Play It Again Sam
Страна-производитель диска: Бельгия / Австрия
Год издания диска: 1983
Номер по каталогу: TK 003-CD

01. Black Zone (03:05)
02. Break Day (03:35)
03. Tower One (05:05)
04. Vigil-Anti (04:24)
05. A Lust For Powder (03:16)
06. Poppy Day (03:57)
07. Tower Two (01:10)
08. Tower Two (02:48)
09. Astrid / Rope And Glory (04:34)
10. Tower Three (03:12)
11. Tower Three (00:53)
12. Tower Four / Tower Five (06:47)
EAC Log
Код: Выделить всё
Exact Audio Copy V1.0 beta 1 from 15. November 2010

EAC extraction logfile from 24. March 2011, 20:36

The Legendary Pink Dots / The Tower

Used drive: HL-DT-STDVD-ROM GDR8082NAdapter: 1ID: 0

Read mode: Secure
Utilize accurate stream : Yes
Defeat audio cache: Yes
Make use of C2 pointers : No

Read offset correction: 102
Overread into Lead-In and Lead-Out: No
Fill up missing offset samples with silence : Yes
Delete leading and trailing silent blocks: No
Null samples used in CRC calculations: Yes
Used interface: Installed external ASPI interface

Used output format : Internal WAV Routines
Sample format: 44.100 Hz; 16 Bit; Stereo

TOC of the extracted CD

Track |Start|Length| Start sector | End sector
---------------------------------------------------------
1|0:00.00 |3:05.37 |0|13911
2|3:05.37 |3:34.58 |13912|30019
3|6:40.20 |5:04.57 |30020|52876
4| 11:45.02 |4:24.28 |52877|72704
5| 16:09.30 |3:16.20 |72705|87424
6| 19:25.50 |3:57.32 |87425|105231
7| 23:23.07 |1:09.15 |105232|110421
8| 24:32.22 |2:47.53 |110422|122999
9| 27:20.00 |4:33.45 |123000|143519
10| 31:53.45 |3:11.47 |143520|157891
11| 35:05.17 |0:53.63 |157892|161929
12| 35:59.05 |6:46.05 |161930|192384

Range status and errors

Selected range

Filename Z:datamp3SeedingLegendary Pink DotsAlbums1983-The Towertower.wav

Peak level 85.1 %
Extraction speed 0.4 X
Range quality 100.0 %
Test CRC 2001BBBA
Copy CRC 2001BBBA
Copy OK

No errors occurred

AccurateRip summary

Track1accurately ripped (confidence 11)[D05AFDEB]
Track2accurately ripped (confidence 11)[5CAC0851]
Track3accurately ripped (confidence 11)[947C6951]
Track4accurately ripped (confidence 11)[92F7D9AC]
Track5accurately ripped (confidence 11)[1FC9CB7C]
Track6accurately ripped (confidence 11)[275FB0C2]
Track7accurately ripped (confidence 11)[0FF40683]
Track8accurately ripped (confidence 11)[65C4E746]
Track9accurately ripped (confidence 11)[6541F464]
Track 10accurately ripped (confidence 11)[EE43FE66]
Track 11accurately ripped (confidence 11)[EAA9DDBA]
Track 12accurately ripped (confidence 11)[982EF12A]

All tracks accurately ripped

End of status report
1984-Faces In The Fire
Лейбл: Play It Again Sam
Страна-производитель диска: Бельгия / Австрия
Год издания диска: 1984
Номер по каталогу: BIAS 1-CD

01. Blasto (03:29)
02. Love In A Plain Brown Envelope (05:44)
03. Sleeso (02:43)
04. Neon Gladiators (06:52)
05. Kitto (01:09)
06. Eight Minutes To Live (03:47)
EAC Log
Код: Выделить всё
Exact Audio Copy V1.0 beta 1 from 15. November 2010

EAC extraction logfile from 27. March 2011, 17:33

The Legendary Pink Dots / Faces In The Fire

Used drive: HL-DT-STDVD-ROM GDR8082NAdapter: 1ID: 0

Read mode: Secure
Utilize accurate stream : Yes
Defeat audio cache: Yes
Make use of C2 pointers : No

Read offset correction: 102
Overread into Lead-In and Lead-Out: No
Fill up missing offset samples with silence : Yes
Delete leading and trailing silent blocks: No
Null samples used in CRC calculations: Yes
Used interface: Installed external ASPI interface

Used output format : Internal WAV Routines
Sample format: 44.100 Hz; 16 Bit; Stereo

TOC of the extracted CD

Track |Start|Length| Start sector | End sector
---------------------------------------------------------
1|0:00.00 |3:28.67 |0|15666
2|3:28.67 |5:44.45 |15667|41511
3|9:13.37 |2:44.63 |41512|53874
4| 11:58.25 |6:50.10 |53875|84634
5| 18:48.35 |1:08.15 |84635|89749
6| 19:56.50 |3:46.42 |89750|106741

Range status and errors

Selected range

Filename Z:datamp3SeedingLegendary Pink DotsAlbums1984-Faces In The Firefaces.wav

Peak level 99.9 %
Extraction speed 0.3 X
Range quality 99.9 %
Test CRC EAE8AE63
Copy CRC EAE8AE63
Copy OK

No errors occurred

AccurateRip summary

Track1accurately ripped (confidence 8)[9033A48D]
Track2accurately ripped (confidence 8)[7A251071]
Track3accurately ripped (confidence 8)[9592C4C8]
Track4accurately ripped (confidence 8)[2D8574D5]
Track5accurately ripped (confidence 8)[94BFCEF9]
Track6accurately ripped (confidence 8)[3800255F]

All tracks accurately ripped

End of status report
1985-Asylum
Лейбл: Play It Again Sam
Страна-производитель диска: Бельгия / Австрия
Год издания диска: 1985
Номер по каталогу: BIAS 12-CD

01. Echo Police (04:49)
02. Gorgon Zola's Baby (02:30)
03. Fifteen Flies in the Marmalade (02:46)
04. Femme Mirage (03:35)
05. The Hill (04:22)
06. Demonism (02:38)
07. Prisoner (05:10)
08. So Gallantly Screaming (11:13)
09. I'm the Way, the Truth, the Light (08:01)
10. Agape (03:48)
11. Golden Dawn (05:53)
12. The Last Straw (04:53)
13. A Message from Our Sponsor (04:06)
14. Go Ask Alice (03:25)
15. This Could Be the End (08:02)
EAC Log
Код: Выделить всё
Exact Audio Copy V1.0 beta 1 from 15. November 2010

EAC extraction logfile from 25. February 2011, 23:01

The Legendary Pink Dots / Asylum

Used drive: HL-DT-STDVD-ROM GDR8082NAdapter: 1ID: 0

Read mode: Secure
Utilize accurate stream : Yes
Defeat audio cache: Yes
Make use of C2 pointers : No

Read offset correction: 102
Overread into Lead-In and Lead-Out: No
Fill up missing offset samples with silence : Yes
Delete leading and trailing silent blocks: No
Null samples used in CRC calculations: Yes
Used interface: Installed external ASPI interface

Used output format : Internal WAV Routines
Sample format: 44.100 Hz; 16 Bit; Stereo

TOC of the extracted CD

Track |Start|Length| Start sector | End sector
---------------------------------------------------------
1|0:00.33 |4:48.55 |33|21687
2|4:49.13 |2:29.45 |21688|32907
3|7:18.58 |2:47.02 |32908|45434
4| 10:05.60 |3:35.20 |45435|61579
5| 13:41.05 |4:22.50 |61580|81279
6| 18:03.55 |2:35.48 |81280|92952
7| 20:39.28 |5:11.35 |92953|116312
8| 25:50.63 | 11:13.30 |116313|166817
9| 37:04.18 |8:01.05 |166818|202897
10| 45:05.23 |3:49.17 |202898|220089
11| 48:54.40 |5:49.70 |220090|246334
12| 54:44.35 |4:53.33 |246335|268342
13| 59:37.68 |4:06.35 |268343|286827
14| 63:44.28 |3:25.35 |286828|302237
15| 67:09.63 |8:01.45 |302238|338357

Range status and errors

Selected range

Filename Z:datamp3Seedingasylum.wav

Peak level 95.2 %
Extraction speed 0.3 X
Range quality 99.9 %
Test CRC 9F18E0B0
Copy CRC 9F18E0B0
Copy OK

No errors occurred

AccurateRip summary

Track1accurately ripped (confidence 5)[1E7A3E9C]
Track2accurately ripped (confidence 5)[998E4385]
Track3accurately ripped (confidence 5)[3B572784]
Track4accurately ripped (confidence 5)[A5345011]
Track5accurately ripped (confidence 5)[6A0E4376]
Track6accurately ripped (confidence 5)[DEEE3117]
Track7accurately ripped (confidence 5)[682B76A2]
Track8accurately ripped (confidence 5)[A615226B]
Track9accurately ripped (confidence 5)[DB1F2F03]
Track 10accurately ripped (confidence 5)[5B0103A0]
Track 11accurately ripped (confidence 5)[D2BFB4EE]
Track 12accurately ripped (confidence 5)[21CEB6CC]
Track 13accurately ripped (confidence 5)[A1CBFB6C]
Track 14accurately ripped (confidence 5)[4A30736E]
Track 15accurately ripped (confidence 5)[C1E2A982]

All tracks accurately ripped

End of status report
1986-Island Of Jewels
Лейбл: Play It Again Sam
Страна-производитель диска: Бельгия / Австрия
Год издания диска: 1984
Номер по каталогу: BIAS 41-CD

01. Tower 6 (02:44)
02. The Red and the Black (04:39)
03. The Dairy (03:53)
04. Emblem Parade (03:06)
05. Jewel on an Island (04:33)
06. Rattlesnake Arena (03:37)
07. The Shock of Contact (05:03)
08. Jewel in the Crown (04:58)
09. Our Lady in Chambers (03:42)
10. Our Lady in Kharki (02:40)
11. Our Lady in Darkness (04:53)
12. The Guardians of Eden (01:38)
EAC Log
Код: Выделить всё
Exact Audio Copy V1.0 beta 1 from 15. November 2010

EAC extraction logfile from 27. March 2011, 17:39

The Legendary Pink Dots / Island of Jewels

Used drive: TEACDVD+-RW DVW28SLCAdapter: 0ID: 0

Read mode: Secure
Utilize accurate stream : Yes
Defeat audio cache: Yes
Make use of C2 pointers : No

Read offset correction: 48
Overread into Lead-In and Lead-Out: No
Fill up missing offset samples with silence : Yes
Delete leading and trailing silent blocks: No
Null samples used in CRC calculations: Yes
Used interface: Native Win32 interface for Win NT & 2000

Used output format : Internal WAV Routines
Sample format: 44.100 Hz; 16 Bit; Stereo

TOC of the extracted CD

Track |Start|Length| Start sector | End sector
---------------------------------------------------------
1|0:00.00 |2:45.27 |0|12401
2|2:45.27 |4:39.35 |12402|33361
3|7:24.62 |3:53.03 |33362|50839
4| 11:17.65 |3:06.20 |50840|64809
5| 14:24.10 |4:33.10 |64810|85294
6| 18:57.20 |3:38.27 |85295|101671
7| 22:35.47 |5:01.73 |101672|124319
8| 27:37.45 |4:57.45 |124320|146639
9| 32:35.15 |3:40.10 |146640|163149
10| 36:15.25 |2:40.32 |163150|175181
11| 38:55.57 |4:55.28 |175182|197334
12| 43:51.10 |1:34.65 |197335|204449

Range status and errors

Selected range

Filename Z:SeedingLegendary Pink DotsAlbums1986-Island Of Jewelsisland.wav

Peak level 94.5 %
Extraction speed 0.0 X
Range quality 100.0 %
Test CRC C333ED9A
Copy CRC C333ED9A
Copy OK

No errors occurred

AccurateRip summary

Track1not present in database
Track2not present in database
Track3not present in database
Track4not present in database
Track5not present in database
Track6not present in database
Track7not present in database
Track8not present in database
Track9not present in database
Track 10not present in database
Track 11not present in database
Track 12not present in database

None of the tracks are present in the AccurateRip database

End of status report
1987-Any Day Now
Лейбл: Play It Again Sam
Страна-производитель диска: Бельгия / Австрия
Год издания диска: 1987
Номер по каталогу: BIAS 80-CD

01. Casting the Runes (05:47)
02. A Strychnine Kiss (03:22)
03. Laguna Beach (02:23)
04. The Gallery (03:32)
05. Neon Mariners (04:47)
06. True Love (03:23)
07. The Peculiar Fun Fair (00:32)
08. Waiting for the Cloud (10:19)
09. Cloud Zero (05:50)
10. Under Glass (07:08)
11. The Light in My Little Girl's Eyes (05:03)
12. The Plasma Twins (02:57)
EAC Log
Код: Выделить всё
Exact Audio Copy V1.0 beta 1 from 15. November 2010

EAC extraction logfile from 27. March 2011, 21:49

The Legendary Pink Dots / Any Day Now

Used drive: HL-DT-STDVD-ROM GDR8082NAdapter: 1ID: 0

Read mode: Secure
Utilize accurate stream : Yes
Defeat audio cache: Yes
Make use of C2 pointers : No

Read offset correction: 102
Overread into Lead-In and Lead-Out: No
Fill up missing offset samples with silence : Yes
Delete leading and trailing silent blocks: No
Null samples used in CRC calculations: Yes
Used interface: Installed external ASPI interface

Used output format : Internal WAV Routines
Sample format: 44.100 Hz; 16 Bit; Stereo

TOC of the extracted CD

Track |Start|Length| Start sector | End sector
---------------------------------------------------------
1|0:00.00 |5:49.47 |0|26221
2|5:49.47 |3:21.35 |26222|41331
3|9:11.07 |2:22.48 |41332|52029
4| 11:33.55 |3:30.70 |52030|67849
5| 15:04.50 |4:48.07 |67850|89456
6| 19:52.57 |3:21.60 |89457|104591
7| 23:14.42 |0:33.25 |104592|107091
8| 23:47.67 | 10:20.18 |107092|153609
9| 34:08.10 |5:50.00 |153610|179859
10| 39:58.10 |7:08.37 |179860|211996
11| 47:06.47 |5:01.70 |211997|234641
12| 52:08.42 |2:55.70 |234642|247836

Range status and errors

Selected range

Filename Z:datamp3SeedingLegendary Pink DotsAlbums1987-Any Day Nowanydaynow.wav

Peak level 96.4 %
Extraction speed 0.1 X
Range quality 100.0 %
Test CRC 186B9536
Copy CRC 186B9536
Copy OK

No errors occurred

AccurateRip summary

Track1accurately ripped (confidence 9)[35BDFEFE]
Track2accurately ripped (confidence 8)[22CB9368]
Track3accurately ripped (confidence 8)[88CD0002]
Track4accurately ripped (confidence 8)[C69FCFCE]
Track5accurately ripped (confidence 8)[1097DDDB]
Track6accurately ripped (confidence 8)[E7D5E3DB]
Track7accurately ripped (confidence 8)[6C0380F8]
Track8accurately ripped (confidence 8)[8D8AEC99]
Track9accurately ripped (confidence 8)[68626993]
Track 10accurately ripped (confidence 8)[5A930ECC]
Track 11accurately ripped (confidence 8)[4B945D9E]
Track 12accurately ripped (confidence 8)[88A3BF59]

All tracks accurately ripped

End of status report
1988-The Golden Age
Лейбл: Play It Again Sam
Страна-производитель диска: Бельгия / Австрия
Год издания диска: 1988
Номер по каталогу: BIAS 103-CD

01. Maniac (04:05)
02. The Talent Contest (04:02)
03. The More It Changes (03:30)
04. Hotel Noir (06:46)
05. Stille Nacht (03:35)
06. The Month After (04:58)
07. Lisa's Separation (05:45)
08. The Golden Age? (01:59)
09. Black Castles (05:25)
10. And Even the Vegetables Screamed (01:36)
11. Regression (01:48)
12. Blacklist (06:44)
13. Methods (04:14)
14. Our Lady in Cervetori (04:44)
EAC Log
Код: Выделить всё
Exact Audio Copy V1.0 beta 1 from 15. November 2010

EAC extraction logfile from 22. March 2011, 22:05

The Legendary Pink Dots / The Golden Age

Used drive: HL-DT-STDVD-ROM GDR8082NAdapter: 1ID: 0

Read mode: Secure
Utilize accurate stream : Yes
Defeat audio cache: Yes
Make use of C2 pointers : No

Read offset correction: 102
Overread into Lead-In and Lead-Out: No
Fill up missing offset samples with silence : Yes
Delete leading and trailing silent blocks: No
Null samples used in CRC calculations: Yes
Used interface: Installed external ASPI interface

Used output format : Internal WAV Routines
Sample format: 44.100 Hz; 16 Bit; Stereo

TOC of the extracted CD

Track |Start|Length| Start sector | End sector
---------------------------------------------------------
1|0:00.00 |4:07.22 |0|18546
2|4:07.22 |4:02.18 |18547|36714
3|8:09.40 |3:30.42 |36715|52506
4| 11:40.07 |6:45.40 |52507|82921
5| 18:25.47 |3:36.05 |82922|99126
6| 22:01.52 |4:56.73 |99127|121399
7| 26:58.50 |5:42.55 |121400|147104
8| 32:41.30 |2:00.12 |147105|156116
9| 34:41.42 |5:24.40 |156117|180456
10| 40:06.07 |1:35.38 |180457|187619
11| 41:41.45 |1:51.07 |187620|195951
12| 43:32.52 |6:44.30 |195952|226281
13| 50:17.07 |4:13.68 |226282|245324
14| 54:31.00 |4:40.15 |245325|266339

Range status and errors

Selected range

Filename Z:datamp3SeedingLegendary Pink DotsAlbums1988-The Golden Agegoldenage.wav

Peak level 99.2 %
Extraction speed 0.2 X
Range quality 100.0 %
Test CRC C212AA5C
Copy CRC C212AA5C
Copy OK

No errors occurred

AccurateRip summary

Track1accurately ripped (confidence 4)[07941686]
Track2accurately ripped (confidence 4)[28143912]
Track3accurately ripped (confidence 4)[0969C008]
Track4accurately ripped (confidence 4)[A0A99E8D]
Track5accurately ripped (confidence 4)[F938287C]
Track6accurately ripped (confidence 4)[3B605FD6]
Track7accurately ripped (confidence 4)[2BCC2F20]
Track8accurately ripped (confidence 4)[CEF0B365]
Track9accurately ripped (confidence 4)[3CF0A4ED]
Track 10accurately ripped (confidence 4)[9BFC11D7]
Track 11accurately ripped (confidence 4)[5EE6DCC3]
Track 12accurately ripped (confidence 4)[B5D9192A]
Track 13accurately ripped (confidence 4)[B1E3D60E]
Track 14accurately ripped (confidence 4)[634CA6E9]

All tracks accurately ripped

End of status report
1990-The Crushed Velvet Apocalypse
Лейбл: Play It Again Sam
Страна-производитель диска: Бельгия / Австрия
Год издания диска: 1988
Номер по каталогу: BIAS 149-CD

01. I Love You in Your Tragic Beauty (04:32)
02. Green Gang (07:35)
03. Hellsville (05:34)
04. Hellowe'en (01:27)
05. The Safe Way (04:32)
06. Just a Lifetime (07:47)
07. The Death of Jack the Ripper (05:26)
08. New Tomorrow (09:55)
09. Princess Coldheart (06:38)
10. The Pleasure Palace (08:12)
11. The Collector (05:23)
12. C.V.A. (01:26)
EAC Log
Код: Выделить всё
Exact Audio Copy V1.0 beta 1 from 15. November 2010

EAC extraction logfile from 15. July 2011, 11:13

The Legendary Pink Dots / The Crushed Velvet Apocalypse

Used drive: TEACDVD+-RW DVW28SLCAdapter: 0ID: 0

Read mode: Secure
Utilize accurate stream : Yes
Defeat audio cache: Yes
Make use of C2 pointers : No

Read offset correction: 48
Overread into Lead-In and Lead-Out: No
Fill up missing offset samples with silence : Yes
Delete leading and trailing silent blocks: No
Null samples used in CRC calculations: Yes
Used interface: Native Win32 interface for Win NT & 2000

Used output format : Internal WAV Routines
Sample format: 44.100 Hz; 16 Bit; Stereo

TOC of the extracted CD

Track |Start|Length| Start sector | End sector
---------------------------------------------------------
1|0:00.32 |4:31.63 |32|20419
2|4:32.20 |7:34.57 |20420|54526
3| 12:07.02 |5:34.10 |54527|79586
4| 17:41.12 |1:26.73 |79587|86109
5| 19:08.10 |4:31.55 |86110|106489
6| 23:39.65 |7:46.62 |106490|141501
7| 31:26.52 |5:25.50 |141502|165926
8| 36:52.27 |9:55.20 |165927|210571
9| 46:47.47 |6:38.00 |210572|240421
10| 53:25.47 |8:13.10 |240422|277406
11| 61:38.57 |5:22.40 |277407|301596
12| 67:01.22 |1:25.10 |301597|307981

Range status and errors

Selected range

Filename C:Musiccrushedvelvet.wav

Peak level 99.2 %
Extraction speed 0.0 X
Range quality 100.0 %
Test CRC 6152B984
Copy CRC 6152B984
Copy OK

No errors occurred

AccurateRip summary

Track1not present in database
Track2not present in database
Track3not present in database
Track4not present in database
Track5not present in database
Track6not present in database
Track7not present in database
Track8not present in database
Track9not present in database
Track 10not present in database
Track 11not present in database
Track 12not present in database

None of the tracks are present in the AccurateRip database

End of status report
1990-The Crushed Velvet Apocalypse [Remaster 2010]
Лейбл: Soleilmoon
Страна-производитель диска: США
Год издания диска: 1990/2001/2010
Номер по каталогу: SOL 175 CD
Produced by the Legendary Pink Dots. Engineered by Hanz Meyer. Remastered in 2010 by Raymond Steeg. Cover painting by Barbery. All photos by Klaus Totzler.

This reissue is dedicated in loving memory of Bob Pistoor.

01. I Love You in Your Tragic Beauty (04:31)
02. Green Gang (07:35)
03. Hellsville (05:34)
04. Hellowe'en (01:27)
05. The Safe Way (04:31)
06. Just a Lifetime (07:47)
07. The Death of Jack the Ripper (05:26)
08. New Tomorrow (09:55)
09. Princess Coldheart (06:37)
10. The Pleasure Palace (08:11)
11. The Collector (05:21)
12. C.V.A. (01:24)
EAC Log
Код: Выделить всё
Exact Audio Copy V0.99 prebeta 5 from 4. May 2009

EAC extraction logfile from 1. November 2010, 15:50

The Legendary Pink Dots / The Crushed Velvet Apocalypse

Used drive: _NECDVD_RW ND-3500AGAdapter: 3ID: 1

Read mode: Secure
Utilize accurate stream : Yes
Defeat audio cache: Yes
Make use of C2 pointers : No

Read offset correction: 48
Overread into Lead-In and Lead-Out: No
Fill up missing offset samples with silence : Yes
Delete leading and trailing silent blocks: No
Null samples used in CRC calculations: Yes
Used interface: Native Win32 interface for Win NT & 2000

Used output format : Internal WAV Routines
Sample format: 44.100 Hz; 16 Bit; Stereo

TOC of the extracted CD

Track |Start|Length| Start sector | End sector
---------------------------------------------------------
1|0:00.00 |4:30.64 |0|20313
2|4:30.64 |7:34.57 |20314|54420
3| 12:05.46 |5:34.10 |54421|79480
4| 17:39.56 |1:26.73 |79481|86003
5| 19:06.54 |4:31.10 |86004|106338
6| 23:37.64 |7:46.38 |106339|141326
7| 31:24.27 |5:25.50 |141327|165751
8| 36:50.02 |9:54.70 |165752|210371
9| 46:44.72 |6:36.66 |210372|240137
10| 53:21.63 |8:11.01 |240138|276963
11| 61:32.64 |5:20.59 |276964|301022
12| 66:53.48 |1:23.69 |301023|307316

Range status and errors

Selected range

Filename C:cygwintmpThe Legendary Pink Dots - The Crushed Velvet ApocalypseThe Crushed Velvet Apocalypse.wav

Peak level 99.9 %
Range quality 99.9 %
Test CRC 72EBC580
Copy CRC 72EBC580
Copy finished

No errors occurred

AccurateRip summary

Track1not present in database
Track2not present in database
Track3not present in database
Track4not present in database
Track5not present in database
Track6not present in database
Track7not present in database
Track8not present in database
Track9not present in database
Track 10not present in database
Track 11not present in database
Track 12not present in database

None of the tracks are present in the AccurateRip database

End of status report
1991-The Maria Dimension
Лейбл: Play It Again Sam
Страна-производитель диска: Бельгия / Австрия
Год издания диска: 1991
Номер по каталогу: BIAS 184-CD

01. Disturbance (05:27)
02. Pennies For Heaven (04:21)
03. Third Secret (04:30)
04. The Grain Kings (08:16)
05. The Ocean Cried 'Blue Murder' (04:05)
06. Belladonna (04:08)
07. A Space Between (06:34)
08. Evolution (08:54)
09. Cheraderama (05:02)
10. Lilith (04:12)
11. Fourth Secret (03:02)
12. Expresso Noir (03:41)
13. Home (05:35)
14. Crushed Velvet (06:44)
EAC Log
Код: Выделить всё
Exact Audio Copy V1.0 beta 1 from 15. November 2010

EAC extraction logfile from 15. July 2011, 9:31

The Legendary Pink Dots / The Maria Dimension

Used drive: TEACDVD+-RW DVW28SLCAdapter: 0ID: 0

Read mode: Secure
Utilize accurate stream : Yes
Defeat audio cache: Yes
Make use of C2 pointers : No

Read offset correction: 48
Overread into Lead-In and Lead-Out: No
Fill up missing offset samples with silence : Yes
Delete leading and trailing silent blocks: No
Null samples used in CRC calculations: Yes
Used interface: Native Win32 interface for Win NT & 2000

Used output format : Internal WAV Routines
Sample format: 44.100 Hz; 16 Bit; Stereo

TOC of the extracted CD

Track |Start|Length| Start sector | End sector
---------------------------------------------------------
1|0:00.32 |5:28.00 |32|24631
2|5:28.32 |4:19.55 |24632|44111
3|9:48.12 |4:29.53 |44112|64339
4| 14:17.65 |8:17.52 |64340|101666
5| 22:35.42 |4:03.08 |101667|119899
6| 26:38.50 |4:07.60 |119900|138484
7| 30:46.35 |6:33.57 |138485|168016
8| 37:20.17 |8:55.70 |168017|208211
9| 46:16.12 |5:00.23 |208212|230734
10| 51:16.35 |4:11.47 |230735|249606
11| 55:28.07 |3:03.63 |249607|263394
12| 58:31.70 |3:40.12 |263395|279906
13| 62:12.07 |5:33.68 |279907|304949
14| 67:46.00 |6:44.20 |304950|335269

Range status and errors

Selected range

Filename Z:SeedingLegendary Pink DotsAlbums1991-The Maria Dimensionmariadimension.wav

Peak level 88.4 %
Extraction speed 0.3 X
Range quality 99.9 %
Test CRC 091FECE7
Copy CRC 091FECE7
Copy OK

No errors occurred

AccurateRip summary

Track1accurately ripped (confidence 12)[EFECC02D]
Track2accurately ripped (confidence 12)[4D6043CE]
Track3accurately ripped (confidence 12)[F9766D51]
Track4accurately ripped (confidence 12)[E8D28BE5]
Track5accurately ripped (confidence 12)[C44EDD82]
Track6accurately ripped (confidence 12)[D8409BA7]
Track7accurately ripped (confidence 12)[B20848B8]
Track8accurately ripped (confidence 12)[DDE635FC]
Track9accurately ripped (confidence 12)[5EC2ABBB]
Track 10accurately ripped (confidence 12)[48437224]
Track 11accurately ripped (confidence 12)[BB1D8258]
Track 12accurately ripped (confidence 12)[AE190BD6]
Track 13accurately ripped (confidence 12)[1735EE55]
Track 14accurately ripped (confidence 12)[6C41AA37]

All tracks accurately ripped

End of status report
1991-The Maria Dimension Bonus CD
Лейбл: Play It Again Sam
Страна-производитель диска: Бельгия / Австрия
Год издания диска: 1991
Номер по каталогу: BIAS 184-CD R

01. I Dream of Jeannie (03:55)
02. Little Oyster (03:59)
03. She Gave Me an Apple (03:09)
04. Stirred But Not Shaken (02:14)
05. Where No Man (06:38)
EAC Log
Код: Выделить всё
Exact Audio Copy V0.99 prebeta 5 from 4. May 2009

EAC extraction logfile from 14. September 2010, 10:08

The Legendary Pink Dots / Maria Dimension Bonus CD

Used drive: LITE-ON LTR-40125SAdapter: 4ID: 1

Read mode: Secure
Utilize accurate stream : Yes
Defeat audio cache: Yes
Make use of C2 pointers : No

Read offset correction: 12
Overread into Lead-In and Lead-Out: No
Fill up missing offset samples with silence : Yes
Delete leading and trailing silent blocks: No
Null samples used in CRC calculations: Yes
Used interface: Installed external ASPI interface

Used output format : Internal WAV Routines
Sample format: 44.100 Hz; 16 Bit; Stereo

TOC of the extracted CD

Track |Start|Length| Start sector | End sector
---------------------------------------------------------
1|0:00.00 |3:55.30 |0|17654
2|3:55.30 |3:59.17 |17655|35596
3|7:54.47 |3:09.30 |35597|49801
4| 11:04.02 |2:14.60 |49802|59911
5| 13:18.62 |6:36.53 |59912|89664

Range status and errors

Selected range

Filename Z:datamp3SeedingLegendary Pink Dots1991-The Maria Dimension Bonus CDThe Maria Dimension Bonus CD.wav

Peak level 99.9 %
Range quality 100.0 %
Test CRC 006B7067
Copy CRC 006B7067
Copy OK

No errors occurred

AccurateRip summary

Track1accurately ripped (confidence 1)[BA8B3A15]
Track2accurately ripped (confidence 1)[B46C8ACC]
Track3accurately ripped (confidence 1)[EBFB587E]
Track4accurately ripped (confidence 1)[92D32F18]
Track5accurately ripped (confidence 1)[EB9FA276]

All tracks accurately ripped

End of status report
1992-Shadow Weaver Part I
Лейбл: Play It Again Sam
Страна-производитель диска: Бельгия / Австрия
Год издания диска: 1992
Номер по каталогу: BIAS 225-CD

01. Zero Zero (07:39)
02. Guilty Man (06:08)
03. Ghosts of Unborn Children (06:55)
04. City of Needles (05:16)
05. Stitching Time (06:23)
06. Twilight Hour (05:37)
07. The Key to Heaven (05:46)
08. Laughing Guest (06:46)
09. Prague Spring (03:26)
10. Leper Colony (06:28)
EAC Log
Код: Выделить всё
Exact Audio Copy V1.0 beta 1 from 15. November 2010

EAC extraction logfile from 14. July 2011, 20:11

The Legendary Pink Dots / Shadow Weaver

Used drive: TEACDVD+-RW DVW28SLCAdapter: 0ID: 0

Read mode: Secure
Utilize accurate stream : Yes
Defeat audio cache: Yes
Make use of C2 pointers : No

Read offset correction: 48
Overread into Lead-In and Lead-Out: No
Fill up missing offset samples with silence : Yes
Delete leading and trailing silent blocks: No
Null samples used in CRC calculations: Yes
Used interface: Native Win32 interface for Win NT & 2000

Used output format : Internal WAV Routines
Sample format: 44.100 Hz; 16 Bit; Stereo

TOC of the extracted CD

Track |Start|Length| Start sector | End sector
---------------------------------------------------------
1|0:00.32 |7:39.03 |32|34459
2|7:39.35 |6:07.45 |34460|62029
3| 13:47.05 |6:55.37 |62030|93191
4| 20:42.42 |5:16.15 |93192|116906
5| 25:58.57 |6:22.43 |116907|145599
6| 32:21.25 |5:37.15 |145600|170889
7| 37:58.40 |5:45.60 |170890|196824
8| 43:44.25 |6:45.40 |196825|227239
9| 50:29.65 |3:26.35 |227240|242724
10| 53:56.25 |6:28.07 |242725|271831

Range status and errors

Selected range

Filename Z:SeedingLegendary Pink DotsAlbums1992-Shadow Weaver Part Ishadowweaver.wav

Peak level 94.4 %
Extraction speed 0.3 X
Range quality 100.0 %
Test CRC 6E7932DA
Copy CRC 6E7932DA
Copy OK

No errors occurred

AccurateRip summary

Track1accurately ripped (confidence 3)[D763B3A3]
Track2accurately ripped (confidence 3)[A5C61250]
Track3accurately ripped (confidence 3)[F27D73A7]
Track4accurately ripped (confidence 3)[AD0D2DFB]
Track5accurately ripped (confidence 3)[E5497459]
Track6accurately ripped (confidence 3)[3AFD372E]
Track7accurately ripped (confidence 3)[D97D7BD0]
Track8accurately ripped (confidence 3)[A94C7452]
Track9accurately ripped (confidence 3)[A9FFA36D]
Track 10accurately ripped (confidence 3)[EA1651A9]

All tracks accurately ripped

End of status report
1993-Malachai - Shadow Weaver Part II
Лейбл: Play It Again Sam
Страна-производитель диска: Бельгия / Австрия
Год издания диска: 1993
Номер по каталогу: BIAS 236-CD

01. Joey The Canary (06:29)
02. Kingdom Of The Flies (04:13)
03. Encore Une Fois (05:03)
04. Wildlife Estate (05:02)
05. Pavane (05:03)
06. Window On The World (11:54)
07. On The Boards (06:47)
08. We Bring The Day (19:03)
09. Paris 4AM (06:55)
EAC Log
Код: Выделить всё
Exact Audio Copy V1.0 beta 1 from 15. November 2010

EAC extraction logfile from 14. July 2011, 23:08

The Legendary Pink Dots / Malachai (Shadow Weaver Part Two)

Used drive: TEACDVD+-RW DVW28SLCAdapter: 0ID: 0

Read mode: Secure
Utilize accurate stream : Yes
Defeat audio cache: Yes
Make use of C2 pointers : No

Read offset correction: 48
Overread into Lead-In and Lead-Out: No
Fill up missing offset samples with silence : Yes
Delete leading and trailing silent blocks: No
Null samples used in CRC calculations: Yes
Used interface: Native Win32 interface for Win NT & 2000

Used output format : Internal WAV Routines
Sample format: 44.100 Hz; 16 Bit; Stereo

TOC of the extracted CD

Track |Start|Length| Start sector | End sector
---------------------------------------------------------
1|0:00.32 |6:28.13 |32|29144
2|6:28.45 |4:13.40 |29145|48159
3| 10:42.10 |5:02.35 |48160|70844
4| 15:44.45 |5:01.45 |70845|93464
5| 20:46.15 |5:03.12 |93465|116201
6| 25:49.27 | 11:53.60 |116202|169736
7| 37:43.12 |6:49.03 |169737|200414
8| 44:32.15 | 19:01.05 |200415|285994
9| 63:33.20 |6:55.12 |285995|317131

Range status and errors

Selected range

Filename Z:SeedingLegendary Pink DotsAlbums1993-Malachai - Shadow Weaver Part IImalachai.wav

Peak level 99.2 %
Extraction speed 0.3 X
Range quality 100.0 %
Test CRC 50DAEB4B
Copy CRC 50DAEB4B
Copy OK

No errors occurred

AccurateRip summary

Track1accurately ripped (confidence 3)[FD2427BE]
Track2accurately ripped (confidence 3)[1386D583]
Track3accurately ripped (confidence 3)[3E84CBD8]
Track4accurately ripped (confidence 3)[8FCDFF87]
Track5accurately ripped (confidence 3)[B32F5655]
Track6accurately ripped (confidence 3)[096B5BB8]
Track7accurately ripped (confidence 3)[FA94FE69]
Track8accurately ripped (confidence 3)[324B304B]
Track9accurately ripped (confidence 3)[74645B88]

All tracks accurately ripped

End of status report
1994-9 Lives To Wonder
Лейбл: Play It Again Sam
Страна-производитель диска: Бельгия / Австрия
Год издания диска: 1994
Номер по каталогу: BIAS 280-CD

01. Madame Guillotine (05:31)
02. On Another Shore (06:24)
03. Softly Softly (02:05)
04. Crumbs on the Carpet (04:55)
05. Hotel Z (07:46)
06. Oasis Malade (02:59)
07. A Crack in Melancholy Time (05:35)
08. Siren (05:32)
09. The Angel Trail (02:00)
10. Nine Shades to the Circle (10:22)
11. A Terra Firma Welcome / Find a Bin to Put It In (05:19)
EAC Log
Код: Выделить всё
Exact Audio Copy V1.0 beta 1 from 15. November 2010

EAC extraction logfile from 14. July 2011, 8:22

The Legendary Pink Dots / 9 Lives to Wonder

Used drive: TEACDVD+-RW DVW28SLCAdapter: 0ID: 0

Read mode: Secure
Utilize accurate stream : Yes
Defeat audio cache: Yes
Make use of C2 pointers : No

Read offset correction: 48
Overread into Lead-In and Lead-Out: No
Fill up missing offset samples with silence : Yes
Delete leading and trailing silent blocks: No
Null samples used in CRC calculations: Yes
Used interface: Native Win32 interface for Win NT & 2000

Used output format : Internal WAV Routines
Sample format: 44.100 Hz; 16 Bit; Stereo

TOC of the extracted CD

Track |Start|Length| Start sector | End sector
---------------------------------------------------------
1|0:00.32 |5:30.70 |32|24851
2|5:31.27 |6:24.05 |24852|53656
3| 11:55.32 |2:05.15 |53657|63046
4| 14:00.47 |4:55.40 |63047|85211
5| 18:56.12 |7:46.50 |85212|120211
6| 26:42.62 |2:57.50 |120212|133536
7| 29:40.37 |5:36.68 |133537|158804
8| 35:17.30 |5:30.40 |158805|183594
9| 40:47.70 |2:00.15 |183595|192609
10| 42:48.10 | 10:23.32 |192610|239366
11| 53:11.42 |5:17.65 |239367|263206

Range status and errors

Selected range

Filename Z:SeedingLegendary Pink DotsAlbums1994-9 Lives To Wonder9lives.wav

Peak level 99.2 %
Extraction speed 0.3 X
Range quality 100.0 %
Test CRC 28C4BE01
Copy CRC 28C4BE01
Copy OK

No errors occurred

AccurateRip summary

Track1accurately ripped (confidence 2)[5395A767]
Track2accurately ripped (confidence 2)[2BA82C25]
Track3accurately ripped (confidence 2)[C117E3DE]
Track4accurately ripped (confidence 2)[887AACE0]
Track5accurately ripped (confidence 2)[897AA101]
Track6accurately ripped (confidence 2)[DE12B374]
Track7accurately ripped (confidence 2)[2DB58E61]
Track8accurately ripped (confidence 2)[CFCCBBE3]
Track9accurately ripped (confidence 2)[B5310383]
Track 10accurately ripped (confidence 2)[5D48D0FA]
Track 11accurately ripped (confidence 2)[25A64DE8]

All tracks accurately ripped

End of status report
1995-From Here You'll Watch The World Go By
Лейбл: Soleilmoon
Страна-производитель диска: США
Год издания диска: 1995
Номер по каталогу: SOL 28 CD

01. Clockwise (04:39)
02. Citadel (06:34)
03. Friend (02:43)
04. A Velvet Resurrection (06:02)
05. Kollusim (02:58)
06. 1001 Commandments (04:59)
07. Remember Me This Way (03:22)
08. This One-Eyed Man is King (05:16)
09. Straight On 'til Morning (08:30)
10. Damien (06:22)
11. This Hollowed Ground (03:07)
EAC Log
Код: Выделить всё
Exact Audio Copy V1.0 beta 1 from 15. November 2010

EAC extraction logfile from 14. July 2011, 7:40

The Legendary Pink Dots / From Here You'll Watch the World Go By

Used drive: TEACDVD+-RW DVW28SLCAdapter: 0ID: 0

Read mode: Secure
Utilize accurate stream : Yes
Defeat audio cache: Yes
Make use of C2 pointers : No

Read offset correction: 48
Overread into Lead-In and Lead-Out: No
Fill up missing offset samples with silence : Yes
Delete leading and trailing silent blocks: No
Null samples used in CRC calculations: Yes
Used interface: Native Win32 interface for Win NT & 2000

Used output format : Internal WAV Routines
Sample format: 44.100 Hz; 16 Bit; Stereo

TOC of the extracted CD

Track |Start|Length| Start sector | End sector
---------------------------------------------------------
1|0:00.00 |4:41.65 |0|21139
2|4:41.65 |6:32.10 |21140|50549
3| 11:14.00 |2:43.52 |50550|62826
4| 13:57.52 |5:59.70 |62827|89821
5| 19:57.47 |2:57.55 |89822|103151
6| 22:55.27 |4:58.55 |103152|125556
7| 27:54.07 |3:25.10 |125557|140941
8| 31:19.17 |5:12.40 |140942|164381
9| 36:31.57 |8:33.58 |164382|202914
10| 45:05.40 |6:21.07 |202915|231496
11| 51:26.47 |3:04.53 |231497|245349

Range status and errors

Selected range

Filename Z:SeedingLegendary Pink DotsAlbums1995-From Here You'll Watch The World Go Byfromhere.wav

Peak level 100.0 %
Extraction speed 0.1 X
Range quality 99.9 %
Test CRC 7040C517
Copy CRC 7040C517
Copy OK

No errors occurred

AccurateRip summary

Track1cannot be verified as accurate (confidence 9)[63C85D72], AccurateRip returned [19DABD8D]
Track2cannot be verified as accurate (confidence 10)[AB2B07A5], AccurateRip returned [D9805E1B]
Track3cannot be verified as accurate (confidence 10)[0F3E0CB1], AccurateRip returned [84E3EB42]
Track4cannot be verified as accurate (confidence 10)[CE00CF80], AccurateRip returned [0F070DD6]
Track5cannot be verified as accurate (confidence 10)[6A8E7982], AccurateRip returned [F3ED08D3]
Track6cannot be verified as accurate (confidence 10)[740D83E2], AccurateRip returned [6692613F]
Track7cannot be verified as accurate (confidence 10)[6B72177D], AccurateRip returned [4FE8F165]
Track8cannot be verified as accurate (confidence 10)[965ACF2E], AccurateRip returned [3D9BE667]
Track9cannot be verified as accurate (confidence 9)[C681451C], AccurateRip returned [7D08E335]
Track 10cannot be verified as accurate (confidence 9)[5A3F5F82], AccurateRip returned [B7646FF8]
Track 11cannot be verified as accurate (confidence 9)[19E2A9BC], AccurateRip returned [B53A418B]

No tracks could be verified as accurate
You may have a different pressing from the one(s) in the database

End of status report
1997-Hallway Of The Gods
Лейбл: Soleilmoon
Страна-производитель диска: США
Год издания диска: 1997
Номер по каталогу: SOL 50 CD

01. On High (05:50)
02. Mekkanikk (03:17)
03. Sterre (04:08)
04. Spike (03:28)
05. All Sides (04:44)
06. Harvest Babies (05:42)
07. Lucifer Landed (04:02)
08. The Hanged Man (02:43)
09. The Saucers are Coming (11:14)
10. Destined to Repeat (05:08)
11. Hallway (12:41)
EAC Log
Код: Выделить всё
Exact Audio Copy V1.0 beta 1 from 15. November 2010

EAC extraction logfile from 12. July 2011, 11:57

The Legendary Pink Dots / Hallway of the Gods

Used drive: TEACDVD+-RW DVW28SLCAdapter: 0ID: 0

Read mode: Secure
Utilize accurate stream : Yes
Defeat audio cache: Yes
Make use of C2 pointers : No

Read offset correction: 48
Overread into Lead-In and Lead-Out: No
Fill up missing offset samples with silence : Yes
Delete leading and trailing silent blocks: No
Null samples used in CRC calculations: Yes
Used interface: Native Win32 interface for Win NT & 2000

Used output format : Internal WAV Routines
Sample format: 44.100 Hz; 16 Bit; Stereo

TOC of the extracted CD

Track |Start|Length| Start sector | End sector
---------------------------------------------------------
1|0:00.30 |5:49.09 |30|26213
2|5:49.39 |3:17.14 |26214|41002
3|9:06.53 |4:08.32 |41003|59634
4| 13:15.10 |3:28.03 |59635|75237
5| 16:43.13 |4:43.52 |75238|96514
6| 21:26.65 |5:41.52 |96515|122141
7| 27:08.42 |4:01.46 |122142|140262
8| 31:10.13 |2:42.53 |140263|152465
9| 33:52.66 | 11:14.12 |152466|203027
10| 45:07.03 |5:07.72 |203028|226124
11| 50:15.00 | 12:41.08 |226125|283207

Range status and errors

Selected range

Filename Z:SeedingLegendary Pink DotsAlbums1997-Hallway Of The Godshallway.wav

Peak level 98.8 %
Extraction speed 0.7 X
Range quality 100.0 %
Test CRC BDCEE4F0
Copy CRC BDCEE4F0
Copy OK

No errors occurred

AccurateRip summary

Track1accurately ripped (confidence 9)[C682C59A]
Track2accurately ripped (confidence 9)[F9FCDADB]
Track3accurately ripped (confidence 9)[E86D21EE]
Track4accurately ripped (confidence 9)[980175D5]
Track5accurately ripped (confidence 9)[EDCEFC82]
Track6accurately ripped (confidence 9)[27166354]
Track7accurately ripped (confidence 9)[9F53AEFE]
Track8accurately ripped (confidence 9)[708B29D4]
Track9accurately ripped (confidence 9)[6FAB61B7]
Track 10accurately ripped (confidence 9)[407E4C60]
Track 11accurately ripped (confidence 9)[AD569454]

All tracks accurately ripped

End of status report
1998-Nemesis Online
Лейбл: Soleilmoon
Страна-производитель диска: США
Год издания диска: 1998
Номер по каталогу: SOL 75 CD

01. Dissonance (05:47)
02. Jasz (01:26)
03. As Long as It's Purple and Green (06:05)
04. Ghost (03:47)
05. Under Your Wheels (04:09)
06. A Sunset for a Swan (05:43)
07. Is It Something I Said? (05:11)
08. Zoo (05:35)
09. Fate's Faithful Punchline (05:43)
10. Cheating the Shadow (03:30)
11. Abracadabra (05:55)
12. Slaapliedje (05:33)
EAC Log
Код: Выделить всё
Exact Audio Copy V1.0 beta 1 from 15. November 2010

EAC extraction logfile from 25. April 2011, 21:13

The Legendary Pink Dots / Nemesis Online

Used drive: PLEXTOR CD-RPX-240AAdapter: 1ID: 0

Read mode: Secure
Utilize accurate stream : Yes
Defeat audio cache: Yes
Make use of C2 pointers : No

Read offset correction: 6
Overread into Lead-In and Lead-Out: No
Fill up missing offset samples with silence : Yes
Delete leading and trailing silent blocks: No
Null samples used in CRC calculations: Yes
Used interface: Installed external ASPI interface

Used output format : Internal WAV Routines
Sample format: 44.100 Hz; 16 Bit; Stereo

TOC of the extracted CD

Track |Start|Length| Start sector | End sector
---------------------------------------------------------
1|0:00.30 |5:46.42 |30|26021
2|5:46.72 |1:25.54 |26022|32450
3|7:12.51 |6:04.66 |32451|59816
4| 13:17.42 |3:46.51 |59817|76817
5| 17:04.18 |4:09.35 |76818|95527
6| 21:13.53 |5:43.33 |95528|121285
7| 26:57.11 |5:11.18 |121286|144628
8| 32:08.29 |5:35.09 |144629|169762
9| 37:43.38 |5:43.04 |169763|195491
10| 43:26.42 |3:29.70 |195492|211236
11| 46:56.37 |5:54.74 |211237|237860
12| 52:51.36 |5:32.65 |237861|262825

Range status and errors

Selected range

Filename Z:datamp3SeedingLegendary Pink DotsAlbums1998-Nemesis Onlinenemesis.wav

Peak level 100.0 %
Extraction speed 0.7 X
Range quality 100.0 %
Test CRC EC449A24
Copy CRC EC449A24
Copy OK

No errors occurred

AccurateRip summary

Track1accurately ripped (confidence 12)[7C5018BC]
Track2accurately ripped (confidence 12)[4A3C6D59]
Track3accurately ripped (confidence 12)[27ABB148]
Track4accurately ripped (confidence 12)[5497F47A]
Track5accurately ripped (confidence 12)[8947B048]
Track6accurately ripped (confidence 12)[24FCAA85]
Track7accurately ripped (confidence 12)[D0A4A7EC]
Track8accurately ripped (confidence 12)[9507A62C]
Track9accurately ripped (confidence 12)[AA98B936]
Track 10accurately ripped (confidence 12)[CF0543B1]
Track 11accurately ripped (confidence 12)[D688236A]
Track 12accurately ripped (confidence 10)[48AE749F]

All tracks accurately ripped

End of status report
2000-A Perfect Mystery
Лейбл: Caciocavallo / Soleilmoon
Страна-производитель диска: США
Год издания диска: 2000
Номер по каталогу: CAD 11

01. Lent (08:06)
02. When I'm With You (04:29)
03. When Lenny Meets Lorca (04:31)
04. Skeltzer Spleltzer (05:03)
05. Mood 159 (05:31)
06. Pain Bubbles (08:34)
07. Blue (07:06)
08. Condition Green (05:30)
09. Death Of A King (06:32)
10. Godless (13:09)
EAC Log
Код: Выделить всё
Exact Audio Copy V1.0 beta 1 from 15. November 2010

EAC extraction logfile from 12. July 2011, 23:53

The Legendary Pink Dots / A Perfect Mystery

Used drive: TEACDVD+-RW DVW28SLCAdapter: 0ID: 0

Read mode: Secure
Utilize accurate stream : Yes
Defeat audio cache: Yes
Make use of C2 pointers : No

Read offset correction: 48
Overread into Lead-In and Lead-Out: No
Fill up missing offset samples with silence : Yes
Delete leading and trailing silent blocks: No
Null samples used in CRC calculations: Yes
Used interface: Native Win32 interface for Win NT & 2000

Used output format : Internal WAV Routines
Sample format: 44.100 Hz; 16 Bit; Stereo

TOC of the extracted CD

Track |Start|Length| Start sector | End sector
---------------------------------------------------------
1|0:00.00 |8:06.32 |0|36481
2|8:06.32 |4:30.42 |36482|56773
3| 12:36.74 |4:32.01 |56774|77174
4| 17:09.00 |5:02.46 |77175|99870
5| 22:11.46 |5:28.16 |99871|124486
6| 27:39.62 |8:34.10 |124487|163046
7| 36:13.72 |7:08.69 |163047|195215
8| 43:22.66 |5:29.32 |195216|219922
9| 48:52.23 |6:32.26 |219923|249348
10| 55:24.49 | 13:06.56 |249349|308354

Range status and errors

Selected range

Filename Z:SeedingLegendary Pink DotsAlbums2000-A Perfect Mysteryperfectmystery.wav

Peak level 100.0 %
Extraction speed 0.6 X
Range quality 100.0 %
Test CRC 40F0BB1D
Copy CRC 40F0BB1D
Copy OK

No errors occurred

AccurateRip summary

Track1accurately ripped (confidence 2)[2F914243]
Track2accurately ripped (confidence 2)[DCAD9844]
Track3accurately ripped (confidence 2)[F2EE0DEE]
Track4accurately ripped (confidence 2)[B29694E8]
Track5accurately ripped (confidence 2)[D00A8F31]
Track6accurately ripped (confidence 2)[E28E31AF]
Track7accurately ripped (confidence 2)[4F62D7D8]
Track8accurately ripped (confidence 2)[1B43F4DC]
Track9accurately ripped (confidence 2)[3F0BE1EE]
Track 10accurately ripped (confidence 2)[CEA5F2CB]

All tracks accurately ripped

End of status report
2002-All The King's Horses
Лейбл: Caciocavallo / Soleilmoon
Страна-производитель диска: США
Год издания диска: 1997
Номер по каталогу: CAD 28

01. The Unlikely Event (04:12)
02. The Way I Feel Today (03:41)
03. 12th (05:35)
04. Our Dominion (05:57)
05. Chain Surfing (04:42)
06. Just Wave (03:57)
07. It's The Real Thing (04:28)
08. A Bargain At Twice The Price (07:17)
09. Daisy (00:43)
10. Birdie (06:01)
11. Lisa Goes Surfing (03:10)
12. Wax And Feathers (08:29)
EAC Log
Код: Выделить всё
Exact Audio Copy V1.0 beta 1 from 15. November 2010

EAC extraction logfile from 24. April 2011, 21:11

The Legendary Pink Dots / All The King's Horses

Used drive: HL-DT-STDVD-ROM GDR8082NAdapter: 1ID: 0

Read mode: Secure
Utilize accurate stream : Yes
Defeat audio cache: Yes
Make use of C2 pointers : No

Read offset correction: 102
Overread into Lead-In and Lead-Out: No
Fill up missing offset samples with silence : Yes
Delete leading and trailing silent blocks: No
Null samples used in CRC calculations: Yes
Used interface: Installed external ASPI interface

Used output format : Internal WAV Routines
Sample format: 44.100 Hz; 16 Bit; Stereo

TOC of the extracted CD

Track |Start|Length| Start sector | End sector
---------------------------------------------------------
1|0:00.30 |4:11.51 |30|18905
2|4:12.06 |3:40.66 |18906|35471
3|7:52.72 |5:35.18 |35472|60614
4| 13:28.15 |5:56.40 |60615|87354
5| 19:24.55 |4:41.52 |87355|108481
6| 24:06.32 |3:56.69 |108482|126250
7| 28:03.26 |4:27.54 |126251|146329
8| 32:31.05 |7:17.13 |146330|179117
9| 39:48.18 |0:42.44 |179118|182311
10| 40:30.62 |6:00.61 |182312|209372
11| 46:31.48 |3:10.12 |209373|223634
12| 49:41.60 |8:29.12 |223635|261821

Range status and errors

Selected range

Filename Z:datamp3SeedingLegendary Pink DotsAlbums2002-All The King's Horsesallhorses.wav

Peak level 96.6 %
Extraction speed 0.3 X
Range quality 99.9 %
Test CRC 2D9B0602
Copy CRC 2D9B0602
Copy OK

No errors occurred

AccurateRip summary

Track1accurately ripped (confidence 4)[C852FDD0]
Track2accurately ripped (confidence 4)[06C65148]
Track3accurately ripped (confidence 4)[D41ECEE0]
Track4accurately ripped (confidence 4)[BCB77EA3]
Track5accurately ripped (confidence 4)[81E1E2DD]
Track6accurately ripped (confidence 4)[8E4EF2E8]
Track7accurately ripped (confidence 4)[7B246F3D]
Track8accurately ripped (confidence 4)[2ED0AA64]
Track9accurately ripped (confidence 4)[AF5C2B11]
Track 10accurately ripped (confidence 4)[94BE7363]
Track 11accurately ripped (confidence 4)[D71B26FF]
Track 12accurately ripped (confidence 4)[2418017C]

All tracks accurately ripped

End of status report
2002-All The King's Men
Лейбл: Reachout International Records
Страна-производитель диска: США
Год издания диска: 2002
Номер по каталогу: RUSCD 8278

01. Cross of Fire (04:48)
02. The Warden (04:36)
03. Touched by the Midnight Sun (04:58)
04. Rash (05:50)
05. The Day Before It Happened (05:04)
06. Brighter Now (06:00)
07. Marz Attacks (06:44)
08. Sabres at Dawn (02:25)
09. All the King's Men (11:41)
10. The Brightest Star (13:22)
EAC Log
Код: Выделить всё
Exact Audio Copy V1.0 beta 1 from 15. November 2010

EAC extraction logfile from 6. April 2011, 1:31

The Legendary Pink Dots / All the King's Men

Used drive: HL-DT-STDVD-ROM GDR8082NAdapter: 1ID: 0

Read mode: Secure
Utilize accurate stream : Yes
Defeat audio cache: Yes
Make use of C2 pointers : No

Read offset correction: 102
Overread into Lead-In and Lead-Out: No
Fill up missing offset samples with silence : Yes
Delete leading and trailing silent blocks: No
Null samples used in CRC calculations: Yes
Used interface: Installed external ASPI interface

Used output format : Internal WAV Routines
Sample format: 44.100 Hz; 16 Bit; Stereo

TOC of the extracted CD

Track |Start|Length| Start sector | End sector
---------------------------------------------------------
1|0:00.00 |4:48.30 |0|21629
2|4:48.30 |4:35.67 |21630|42321
3|9:24.22 |4:58.17 |42322|64688
4| 14:22.39 |5:49.72 |64689|90935
5| 20:12.36 |5:03.48 |90936|113708
6| 25:16.09 |6:00.25 |113709|140733
7| 31:16.34 |6:44.24 |140734|171057
8| 38:00.58 |2:25.07 |171058|181939
9| 40:25.65 | 11:40.38 |181940|234477
10| 52:06.28 | 13:21.39 |234478|294591

Range status and errors

Selected range

Filename Z:datamp3SeedingLegendary Pink DotsAlbums2002-All The King's Menallmen.wav

Peak level 100.0 %
Extraction speed 0.6 X
Range quality 100.0 %
Test CRC 45BCD46E
Copy CRC 45BCD46E
Copy OK

No errors occurred

AccurateRip summary

Track1accurately ripped (confidence 7)[D9B28133]
Track2accurately ripped (confidence 7)[65F71075]
Track3accurately ripped (confidence 7)[13BECD75]
Track4accurately ripped (confidence 7)[351F2249]
Track5accurately ripped (confidence 7)[527982AF]
Track6accurately ripped (confidence 7)[0979840F]
Track7accurately ripped (confidence 7)[3AF88F67]
Track8accurately ripped (confidence 7)[DCC76C74]
Track9accurately ripped (confidence 7)[F9694C33]
Track 10accurately ripped (confidence 7)[3CCA8097]

All tracks accurately ripped

End of status report
2004-Poppy Variations
Лейбл: The Terminal Kaleidoscope
Страна-производитель диска: США / Голландия
Год издания диска: 2004
Номер по каталогу: TEKA 15

01. Krussoe (04:37)
02. Personal Monster (03:38)
03. It Doesn't Matter Anyway (04:26)
04. The Equaliser (05:36)
05. L'oiseau Rare (Parts 1 and 2) (09:28)
06. The Hot Breath on Your Neck (06:24)
07. The Poppy Variations Part 1 (13:59)
08. The Poppy Variations Part 2 (12:15)
EAC Log
Код: Выделить всё
Exact Audio Copy V1.0 beta 1 from 15. November 2010

EAC extraction logfile from 5. April 2011, 22:16

The Legendary Pink Dots / Poppy Variations

Used drive: HL-DT-STDVD-ROM GDR8082NAdapter: 1ID: 0

Read mode: Secure
Utilize accurate stream : Yes
Defeat audio cache: Yes
Make use of C2 pointers : No

Read offset correction: 102
Overread into Lead-In and Lead-Out: No
Fill up missing offset samples with silence : Yes
Delete leading and trailing silent blocks: No
Null samples used in CRC calculations: Yes
Used interface: Installed external ASPI interface

Used output format : Internal WAV Routines
Sample format: 44.100 Hz; 16 Bit; Stereo

TOC of the extracted CD

Track |Start|Length| Start sector | End sector
---------------------------------------------------------
1|0:00.00 |4:39.35 |0|20959
2|4:39.35 |3:38.30 |20960|37339
3|8:17.65 |4:26.01 |37340|57290
4| 12:43.66 |5:36.06 |57291|82496
5| 18:19.72 |9:27.51 |82497|125072
6| 27:47.48 |6:24.06 |125073|153878
7| 34:11.54 | 13:59.25 |153879|216828
8| 48:11.04 | 12:13.14 |216829|271817

Range status and errors

Selected range

Filename Z:datamp3SeedingLegendary Pink DotsAlbums2004-Poppy Variationspoppyvariations.wav

Peak level 100.0 %
Extraction speed 0.5 X
Range quality 100.0 %
Test CRC 7E95476C
Copy CRC 7E95476C
Copy OK

No errors occurred

AccurateRip summary

Track1accurately ripped (confidence 3)[97007698]
Track2accurately ripped (confidence 3)[4280264A]
Track3accurately ripped (confidence 3)[993FAC59]
Track4accurately ripped (confidence 3)[7D038C36]
Track5accurately ripped (confidence 3)[7FE6FBB1]
Track6accurately ripped (confidence 3)[795B3E30]
Track7accurately ripped (confidence 3)[2B8ABD99]
Track8accurately ripped (confidence 3)[4FADBBAC]

All tracks accurately ripped

End of status report
2004-The Whispering Wall
Лейбл: Reachout International Records
Страна-производитель диска: США
Год издания диска: 2004
Номер по каталогу: RUSCD 8286

01. Soft Toy (04:41)
02. A Distant Summer (04:16)
03. Dominic (03:57)
04. In Sickness and in Health (09:01)
05. For Sale (05:50)
06. King of a Small World (02:43)
07. The Region Beyond (04:59)
08. 06 (04:09)
09. Peek A Boo (02:19)
10. The Divide (08:03)
11. Sunken Pleasures / Rising Pleasure / No Walls, No Strings (12:13)
EAC Log
Код: Выделить всё
Exact Audio Copy V1.0 beta 1 from 15. November 2010

EAC extraction logfile from 5. April 2011, 21:19

The Legendary Pink Dots / The Whispering Wall

Used drive: HL-DT-STDVD-ROM GDR8082NAdapter: 1ID: 0

Read mode: Secure
Utilize accurate stream : Yes
Defeat audio cache: Yes
Make use of C2 pointers : No

Read offset correction: 102
Overread into Lead-In and Lead-Out: No
Fill up missing offset samples with silence : Yes
Delete leading and trailing silent blocks: No
Null samples used in CRC calculations: Yes
Used interface: Installed external ASPI interface

Used output format : Internal WAV Routines
Sample format: 44.100 Hz; 16 Bit; Stereo

TOC of the extracted CD

Track |Start|Length| Start sector | End sector
---------------------------------------------------------
1|0:00.00 |4:42.42 |0|21191
2|4:42.42 |4:15.53 |21192|40369
3|8:58.20 |3:57.36 |40370|58180
4| 12:55.56 |9:00.54 |58181|98734
5| 21:56.35 |5:50.05 |98735|124989
6| 27:46.40 |2:43.71 |124990|137285
7| 30:30.36 |4:58.28 |137286|159663
8| 35:28.64 |4:08.50 |159664|178313
9| 39:37.39 |2:18.62 |178314|188725
10| 41:56.26 |8:02.40 |188726|224915
11| 49:58.66 | 12:11.19 |224916|279759

Range status and errors

Selected range

Filename Z:datamp3SeedingLegendary Pink DotsAlbums2004-The Whispering Wallwhisperingwall.wav

Peak level 100.0 %
Extraction speed 0.6 X
Range quality 100.0 %
Test CRC 40200A38
Copy CRC 40200A38
Copy OK

No errors occurred

AccurateRip summary

Track1accurately ripped (confidence 13)[E2A15700]
Track2accurately ripped (confidence 13)[E1659177]
Track3accurately ripped (confidence 13)[618D0C5A]
Track4accurately ripped (confidence 13)[5B68821B]
Track5accurately ripped (confidence 13)[E3591EFA]
Track6accurately ripped (confidence 13)[3F7D69C2]
Track7accurately ripped (confidence 13)[3E83520C]
Track8accurately ripped (confidence 13)[8518A4B0]
Track9accurately ripped (confidence 13)[9883B889]
Track 10accurately ripped (confidence 13)[FF9BA76B]
Track 11accurately ripped (confidence 13)[4EE1061E]

All tracks accurately ripped

End of status report
2006-Your Children Placate You From Premature Graves
Лейбл: Reachout International Records
Страна-производитель диска: США
Год издания диска: 2006
Номер по каталогу: RUSCD 8299

01. Count On Me (01:46)
02. No Matter What You Do (06:55)
03. Stigmata (Part 4) (06:56)
04. Feathers At Dawn (05:13)
05. Please Don't Get Me Wrong (06:36)
06. Peace Of Mind (05:28)
07. The Island Of Our Dreams (05:14)
08. Bad Hair (07:52)
09. The Made Man's Manifesto (07:46)
10. A Silver Thread (06:44)
11. Your Number Is Up (02:24)
EAC Log
Код: Выделить всё
Exact Audio Copy V1.0 beta 1 from 15. November 2010

EAC extraction logfile from 5. April 2011, 20:25

The Legendary Pink Dots / Your Children Placate You From Premature Graves

Used drive: HL-DT-STDVD-ROM GDR8082NAdapter: 1ID: 0

Read mode: Secure
Utilize accurate stream : Yes
Defeat audio cache: Yes
Make use of C2 pointers : No

Read offset correction: 102
Overread into Lead-In and Lead-Out: No
Fill up missing offset samples with silence : Yes
Delete leading and trailing silent blocks: No
Null samples used in CRC calculations: Yes
Used interface: Installed external ASPI interface

Used output format : Internal WAV Routines
Sample format: 44.100 Hz; 16 Bit; Stereo

TOC of the extracted CD

Track |Start|Length| Start sector | End sector
---------------------------------------------------------
1|0:00.00 |1:45.66 |0|7940
2|1:45.66 |6:55.10 |7941|39075
3|8:41.01 |6:55.65 |39076|70265
4| 15:36.66 |5:12.42 |70266|93707
5| 20:49.33 |6:36.34 |93708|123441
6| 27:25.67 |5:27.44 |123442|148010
7| 32:53.36 |5:14.26 |148011|171586
8| 38:07.62 |7:52.30 |171587|207016
9| 46:00.17 |7:46.06 |207017|241972
10| 53:46.23 |6:44.00 |241973|272272
11| 60:30.23 |2:24.32 |272273|283104

Range status and errors

Selected range

Filename Z:datamp3SeedingLegendary Pink DotsAlbums2006-Your Children Placate You From Premature Gravesyourchildren.wav

Peak level 97.3 %
Extraction speed 0.1 X
Range quality 100.0 %
Test CRC 356D57F2
Copy CRC 356D57F2
Copy OK

No errors occurred

AccurateRip summary

Track1accurately ripped (confidence 2)[F34A18FA]
Track2accurately ripped (confidence 2)[3F2EEDB8]
Track3accurately ripped (confidence 2)[C2B0C6C8]
Track4accurately ripped (confidence 2)[308506C9]
Track5accurately ripped (confidence 2)[48FBB690]
Track6accurately ripped (confidence 2)[1E6DA1B1]
Track7accurately ripped (confidence 2)[304FD30F]
Track8accurately ripped (confidence 2)[99C78190]
Track9accurately ripped (confidence 2)[189DC340]
Track 10accurately ripped (confidence 2)[C2EB70B6]
Track 11accurately ripped (confidence 2)[A44306E3]

All tracks accurately ripped

End of status report
2008-Plutonium Blonde
Лейбл: Reachout International Records
Страна-производитель диска: США
Год издания диска: 2008
Номер по каталогу: RUSCD 8305

01. Torchsong (07:06)
02. Rainbows Too? (09:30)
03. A World with No Mirrors (05:16)
04. My First Zonee (03:57)
05. Faded Photograph (04:27)
06. An Arm and a Leg (06:40)
07. Mailman (02:21)
08. Oceans Blue (07:46)
09. Savannah Red (01:47)
10. Cubic Caesar (06:32)
EAC Log
Код: Выделить всё
Exact Audio Copy V1.0 beta 1 from 15. November 2010

EAC extraction logfile from 27. March 2011, 15:24

The Legendary Pink Dots / Plutonium Blonde

Used drive: HL-DT-STDVD-ROM GDR8082NAdapter: 1ID: 0

Read mode: Secure
Utilize accurate stream : Yes
Defeat audio cache: Yes
Make use of C2 pointers : No

Read offset correction: 102
Overread into Lead-In and Lead-Out: No
Fill up missing offset samples with silence : Yes
Delete leading and trailing silent blocks: No
Null samples used in CRC calculations: Yes
Used interface: Installed external ASPI interface

Used output format : Internal WAV Routines
Sample format: 44.100 Hz; 16 Bit; Stereo

TOC of the extracted CD

Track |Start|Length| Start sector | End sector
---------------------------------------------------------
1|0:00.00 |7:05.71 |0|31945
2|7:05.71 |9:30.35 |31946|74730
3| 16:36.31 |5:15.59 |74731|98414
4| 21:52.15 |3:57.19 |98415|116208
5| 25:49.34 |4:26.49 |116209|136207
6| 30:16.08 |6:40.14 |136208|166221
7| 36:56.22 |2:20.72 |166222|176793
8| 39:17.19 |7:45.42 |176794|211710
9| 47:02.61 |1:46.69 |211711|219729
10| 48:49.55 |6:31.39 |219730|249093

Range status and errors

Selected range

Filename Z:datamp3SeedingLegendary Pink DotsAlbums2008-Plutonium Blondeplutoniumblonde.wav

Peak level 100.0 %
Extraction speed 0.3 X
Range quality 100.0 %
Test CRC 44C87ED1
Copy CRC 44C87ED1
Copy OK

No errors occurred

AccurateRip summary

Track1accurately ripped (confidence 5)[D112F29E]
Track2accurately ripped (confidence 5)[38DF2792]
Track3accurately ripped (confidence 5)[EAE5C8CB]
Track4accurately ripped (confidence 5)[A5A2B40C]
Track5accurately ripped (confidence 5)[DA4E617E]
Track6accurately ripped (confidence 5)[3B5CD4B0]
Track7accurately ripped (confidence 5)[C872814B]
Track8accurately ripped (confidence 5)[A39C9F56]
Track9accurately ripped (confidence 5)[3F2C1C6C]
Track 10accurately ripped (confidence 5)[89BC704E]

All tracks accurately ripped

End of status report
2010-Seconds Late For The Brighton Line
Лейбл: Reachout International Records
Страна-производитель диска: США
Год издания диска: 2010
Номер по каталогу: RUSCD 8317

01. Russian roulette (05:58)
02. Endless time (05:24)
03. Leap of faith (07:05)
04. Radiation day (06:01)
05. God and machines (06:36)
06. No star too far (09:34)
07. Someday (05:50)
08. Hauptbahnhof 20:10 (06:55)
09. Ascension (13:00)
EAC Log
Код: Выделить всё
Exact Audio Copy V0.99 prebeta 5 from 4. May 2009

EAC extraction logfile from 15. October 2010, 7:59

The Legendary Pink Dots / Seconds Late For The Brighton Line

Used drive: LITE-ON DVDRW LH-20A1LAdapter: 2ID: 0

Read mode: Secure
Utilize accurate stream : Yes
Defeat audio cache: Yes
Make use of C2 pointers : No

Read offset correction: 6
Overread into Lead-In and Lead-Out: No
Fill up missing offset samples with silence : Yes
Delete leading and trailing silent blocks: No
Null samples used in CRC calculations: Yes
Used interface: Installed external ASPI interface

Used output format : Internal WAV Routines
Sample format: 44.100 Hz; 16 Bit; Stereo

TOC of the extracted CD

Track |Start|Length| Start sector | End sector
---------------------------------------------------------
1|0:00.00 |5:58.34 |0|26883
2|5:58.34 |5:23.63 |26884|51171
3| 11:22.22 |7:04.68 |51172|83039
4| 18:27.15 |6:01.08 |83040|110122
5| 24:28.23 |6:36.28 |110123|139850
6| 31:04.51 |9:34.09 |139851|182909
7| 40:38.60 |5:49.63 |182910|209147
8| 46:28.48 |6:54.43 |209148|240240
9| 53:23.16 | 12:59.74 |240241|298739

Range status and errors

Selected range

Filename Z:datamp3SeedingLegendary Pink Dots2010-Seconds Late For The Brighton LineSeconds Late For The Brighton Line.wav

Peak level 96.6 %
Range quality 100.0 %
Test CRC 443A55D3
Copy CRC 443A55D3
Copy OK

No errors occurred

AccurateRip summary

Track1not present in database
Track2not present in database
Track3not present in database
Track4not present in database
Track5not present in database
Track6not present in database
Track7not present in database
Track8not present in database
Track9not present in database

None of the tracks are present in the AccurateRip database

End of status report

Постеры

Автор

Аватара пользователя
Torrnado
Супераплоадеры
Супераплоадеры
 
Раздал: 30.33 ГБ
Скачал: 84.02 ГБ
Ратио: 0.361
Сообщения: 125
Зарегистрирован: 19 сен 2010, 19:02
Репутация: 8


Торрент

Автор: Torrnado
Добавлен: 10 окт 2012, 11:50
Размер: 26.33 ГБ
Размер: 28 275 224 652 байт
Сидеров: 46
Личеров: 48
Скачали: 3
Здоровье: 95%
Раздающих: 100%
Статус: Проверен
Изменил: Asperatus (10 окт 2012, 14:09)
Скорость скачивания: 0 байт/сек
Скорость раздачи: 0 байт/сек
Последний сидер: 14 дней 7 часов 51 минуту 32 секунды назад
Последний личер: 14 дней 7 часов 51 минуту 32 секунды назад
Приватный: Нет (DHT включён)
Rockabilly, Psychobilly, Rock'n'Roll (lossless) Скачать торрент
Скачать торрент
[ Размер 164.31 КБ / Просмотров 33 ]


Вернуться в Rockabilly, Psychobilly, Rock'n'Roll (lossless)

Кто сейчас на конференции

Сейчас этот форум просматривают: нет зарегистрированных пользователей и гости: 1

Привет!

Привет, меня зовут Няша, я что-то типа ангела хранителя RipFunClub'а. Так как админ меня не дописал, я еще глупенькая, и ни чего не умею и между прочим мне за это очень стыдно =( К тому же мой вид меня смущает ='(

А пока я могу только предложить зарегистрироваться или залогинеться =)