Главная » ТрекерВидео (кино, ТВ)Художественное киноГорячие новинки
Версия для печати
Бессовестная реклама: на этой странице пока нет =)

2 спальни, 1 ванная / 2 Bedroom 1 Bath (2014) HDTVRip

Правила форума

Сообщение

2 спальни, 1 ванная / 2 Bedroom 1 Bath (2014) HDTVRip

Сообщение babasby » 17 окт 2014, 19:22

Год выхода: 2014
Жанр: Ужасы, триллер
Режиссер: Стэнли Юнг
В ролях: Мишель Хикс, Эндрю В. Уолкер, Эрик Робертс, Ди Уоллес-Стоун, Костас Мэндилор, Шошана Буш, Шелби Янг, Эйден Флауэрс, Джек Доннер, Руби Лу Смит

О фильме:
Молодая пара, Кевин и Рейчел, переезжают в дом, который им видится идеальным для создания новой семьи. Вскоре выясняется, что Рейчел беременна и, казалось бы, счастью супругам нет предела, но с приятной новостью приходят и загадочные, ужасающие события. Кевину начинают сниться кошмары, которые не перестают его преследовать даже наяву, а Рейчел не дает покоя призрак в красном платье. Чем больше некогда счастливая пара пытается распутать причины происходящего, тем больше они понимают, что все события сосредоточены вокруг рождения их будущего ребенка.

Страна: США
Студия: Al Bravo Films, Chemical mind studios
Продолжительность: 01:26:50
Перевод: Профессиональный многоголосый

Кодек: XviD
Качество: HDTVRip
Видео: 1788 Кбит/с, 720x384, 25.000 кадр/с
Звук: Русский (АС3, 6 ch, 448 Кбит/с)
Общее
Полное имя : 2.spalni.1.vanna.2014.HDTVRip.MediaClub.avi
Формат : AVI
Формат/Информация : Audio Video Interleave
Размер файла : 1,36 Гбайт
Продолжительность : 1 ч. 26 м.
Общий поток : 2246 Кбит/сек
Название фильма : MediaClub
Программа кодирования : VirtualDubMod 1.5.10.2 (build 2540/release)
Библиотека кодирования : VirtualDubMod build 2540/release

Видео
Идентификатор : 0
Формат : MPEG-4 Visual
Профиль формата : Advanced Simple@L5
Параметр BVOP формата : 2
Параметр QPel формата : Нет
Параметр GMC формата : Без точки перехода
Параметр матрицы формата : Default (MPEG)
Идентификатор кодека : XVID
Идентификатор кодека/Подсказка : XviD
Продолжительность : 1 ч. 26 м.
Битрейт : 1788 Кбит/сек
Ширина : 720 пикселей
Высота : 384 пикселя
Соотношение сторон : 1,85:1
Частота кадров : 25,000 кадров/сек
Цветовое пространство : YUV
Субдискретизация насыщенности : 4:2:0
Битовая глубина : 8 бит
Тип развёртки : Прогрессивная
Метод сжатия : С потерями
Бит/(Пиксели*Кадры) : 0.259
Размер потока : 1,08 Гбайт (80%)
Библиотека кодирования : XviD 65

Аудио
Идентификатор : 1
Формат : AC-3
Формат/Информация : Audio Coding 3
Расширение режима : CM (complete main)
Параметр Endianness формата : Big
Идентификатор кодека : 2000
Продолжительность : 1 ч. 26 м.
Вид битрейта : Постоянный
Битрейт : 448 Кбит/сек
Каналы : 6 каналов
Расположение каналов : Front: L C R, Side: L R, LFE
Частота : 48,0 КГц
Битовая глубина : 16 бит
Метод сжатия : С потерями
Размер потока : 278 Мбайт (20%)
Выравнивание : Разделение по промежуткам
Продолжительность промежутка : 40 мс. (1,00 видеокадр)
Время предзагрузки промежутка : 500 мс.

Постеры

Автор

Аватара пользователя
babasby
Релизер
Релизер
 
Раздал: 2.64 ГБ
Скачал: 550.25 МБ
Ратио: 4.921
Сообщения: 1517
Зарегистрирован: 08 сен 2010, 16:07
Репутация: 15


Торрент

Автор: babasby
Добавлен: 17 окт 2014, 19:22
Размер: 1.36 ГБ
Размер: 1 462 771 712 байт
Сидеров: 332
Личеров: 88
Скачали: 3
Здоровье: 100%
Раздающих: 100%
Скорость скачивания: 0 байт/сек
Скорость раздачи: 0 байт/сек
Последний сидер: 10 дней 5 часов 47 минут 45 секунд назад
Последний личер: 10 дней 5 часов 47 минут 45 секунд назад
Приватный: Нет (DHT включён)
Горячие новинки Скачать торрент
Скачать торрент
[ Размер 14.44 КБ / Просмотров 29 ]


Вернуться в Горячие новинки

Кто сейчас на конференции

Сейчас этот форум просматривают: нет зарегистрированных пользователей и гости: 1

Привет!

Привет, меня зовут Няша, я что-то типа ангела хранителя RipFunClub'а. Так как админ меня не дописал, я еще глупенькая, и ни чего не умею и между прочим мне за это очень стыдно =( К тому же мой вид меня смущает ='(

А пока я могу только предложить зарегистрироваться или залогинеться =)