Главная » ТрекерВидео (кино, ТВ)Художественное кинофильмы DVD
Версия для печати
Бессовестная реклама: на этой странице пока нет =)

Дилемма / The Dilemma (2011) DVD9

Правила форума

Сообщение

Дилемма / The Dilemma (2011) DVD9

Сообщение Петрович » 12 июн 2011, 08:36

Название: Дилемма
Оригинальное название: The Dilemma
Год выхода: 2011
Жанр: драма, комедия
Режиссер: Рон Ховард
В ролях: Винс Вон, Кевин Джеймс, Дженнифер Коннелли, Вайнона Райдер, Ченнинг Татум, Куин Латифа, Эми Мортон, Челси Росс, Эдуардо Н. Мартинез, Рэнс Ховард

О фильме:
Главные герои истории — два друга и деловых компаньона Ронни и Исаак. Однажды Ронни застукал жену друга с другим мужчиной и теперь мучается дилеммой: либо смолчать, либо рассказать обо всем обманутому товарищу.
[Для просмотра изображения необходимо включить JavaScript]
Страна: США, Imagine Entertainment / Spyglass Entertainment / Wild West Picture Show Productions
Продолжительность: 01:46:50
Перевод: Дублированное [лицензия]

Кодек: VOB
Качество: DVD9
Видео: PAL 16:9 (720x576)
Аудио #1: Russian (Dolby AC3, 6 ch) 384 Кбит/сек, 48,0 КГц
Аудио #2: English (Dolby AC3, 6 ch) 384 Кбит/сек, 48,0 КГц
Аудио #3: Polish (Dolby AC3, 6 ch) 384 Кбит/сек, 48,0 КГц

Title: Мой диск
Size: 6.36 Gb ( 6 669 070 KBytes ) - DVD-9
Enabled regions: 1, 2, 3, 4, 5, 6, 7, 8

VTS_01 :
Play Length: 01:46:50
Video: PAL 16:9 (720x576) VBR, Auto Letterboxed
Audio:
English (Dolby AC3, 6 ch)
Russian (Dolby AC3, 6 ch)
Polish (Dolby AC3, 6 ch)
Subtitles:
English
Polish
Estonian
Latvian
Lithuanian
Ukrainian
Russian

VTS_02 :
Play Length: 00:00:23
Video: PAL 16:9 (720x576) VBR, Auto Letterboxed
Audio:
English (Dolby AC3, 6 ch)

VTS_03 :
Play Length: 00:00:14
Video: PAL 16:9 (720x576) VBR, Auto Letterboxed
Audio:
English (Dolby AC3, 6 ch)

VTS_04 :
Play Length:
Video: PAL 16:9 (720x576) VBR, Auto Letterboxed

VTS_05 :
Play Length: 00:15:36+00:00:50+00:02:20+00:02:03+00:01:32+00:02:10+00:02:00+00:00:51+00:03:35
Video: PAL 16:9 (720x576) VBR, Auto Letterboxed
Audio:
English (Dolby AC3, 2 ch)
Subtitles:
English
Russian
Polish

VTS_06 :
Play Length: 00:00:12
Video: PAL 16:9 (720x576) VBR, Auto Letterboxed
Audio:
English (Dolby AC3, 2 ch)
Subtitles:
English
Russian
Polish

VTS_07 :
Play Length: 00:01:52
Video: PAL 16:9 (720x576) VBR, Auto Letterboxed
Audio:
English (Dolby AC3, 2 ch)
Subtitles:
English
Russian
Polish

VTS_08 :
Play Length: 00:00:09
Video: PAL 16:9 (720x576) VBR, Auto Letterboxed
Audio:
English (Dolby AC3, 2 ch)

VTS_09 :
Play Length: 00:01:23
Video: PAL 16:9 (720x576) VBR, Auto Letterboxed
Audio:
English (Dolby AC3, 2 ch)
Subtitles:
English
Russian
Polish

VTS_10 :
Play Length: 00:02:27
Video: PAL 16:9 (720x576) VBR, Auto Letterboxed
Audio:
English (Dolby AC3, 2 ch)
Subtitles:
English
Russian
Polish

VTS_11 :
Play Length: 00:01:56
Video: PAL 16:9 (720x576) VBR, Auto Letterboxed
Audio:
English (Dolby AC3, 2 ch)
Subtitles:
English
Russian
Polish

VTS_12 :
Play Length: 00:00:09+00:00:08
Video: PAL 16:9 (720x576) VBR, Auto Letterboxed
Audio:
English (Dolby AC3, 2 ch)

VTS_13 :
Play Length: 00:01:05
Video: PAL 16:9 (720x576) VBR, Auto Letterboxed
Audio:
English (Dolby AC3, 2 ch)
Subtitles:
English
Russian
Polish

Общее
Полное имя : d:movieDilemma.2011.DVD9VIDEO_TSVTS_01_1.VOB
Формат : MPEG-PS
Размер файла : 1024 Мбайт
Продолжительность : 20 м.
Общий поток : 6857 Кбит/сек

Видео
Идентификатор : 224 (0xE0)
Формат : MPEG Video
Версия формата : Version 2
Профиль формата : Main@Main
Параметр BVOP формата : Да
Параметр матрицы формата : По умолчанию
Продолжительность : 20 м.
Вид битрейта : Переменный
Битрейт : 5568 Кбит/сек
Номинальный битрейт : 9800 Кбит/сек
Ширина : 720 пикс.
Высота : 576 пикс.
Соотношение сторон : 16:9
Частота кадров : 25,000 кадр/сек
Стандарт вещания : PAL
Цветовое пространство : YUV
Подвыборка цветности : 4:2:0
Битовая глубина : 8 бит
Тип развёртки : Чересстрочная
Порядок развёртки : Верхнее поле первое
Метод сжатия : С потерями
Бит/(Пиксели*Кадры) : 0.537
Размер потока : 832 Мбайт (81%)

Аудио #1
Идентификатор : 189 (0xBD)-128 (0x80)
Формат : AC-3
Формат/Информация : Audio Coding 3
Расширение режима : CM (complete main)
Режим смешивания : DVD-Video
Продолжительность : 20 м.
Вид битрейта : Постоянный
Битрейт : 384 Кбит/сек
Канал(ы) : 6 канала(ов)
Расположение каналов : Front: L C R, Side: L R, LFE
Частота : 48,0 КГц
Битовая глубина : 16 бит
Метод сжатия : С потерями
Размер потока : 57,3 Мбайт (6%)

Аудио #2
Идентификатор : 189 (0xBD)-129 (0x81)
Формат : AC-3
Формат/Информация : Audio Coding 3
Расширение режима : CM (complete main)
Режим смешивания : DVD-Video
Продолжительность : 20 м.
Вид битрейта : Постоянный
Битрейт : 384 Кбит/сек
Канал(ы) : 6 канала(ов)
Расположение каналов : Front: L C R, Side: L R, LFE
Частота : 48,0 КГц
Битовая глубина : 16 бит
Метод сжатия : С потерями
Размер потока : 57,3 Мбайт (6%)

Аудио #3
Идентификатор : 189 (0xBD)-130 (0x82)
Формат : AC-3
Формат/Информация : Audio Coding 3
Расширение режима : CM (complete main)
Режим смешивания : DVD-Video
Продолжительность : 20 м.
Вид битрейта : Постоянный
Битрейт : 384 Кбит/сек
Канал(ы) : 6 канала(ов)
Расположение каналов : Front: L C R, Side: L R, LFE
Частота : 48,0 КГц
Битовая глубина : 16 бит
Метод сжатия : С потерями
Размер потока : 57,3 Мбайт (6%)

Скриншоты

Автор

Петрович
 


Торрент

Автор: Петрович
Добавлен: 12 июн 2011, 08:36
Размер: 6.36 ГБ
Размер: 6 829 127 680 байт
Сидеров: 0
Личеров: 1
Скачали: 0
Здоровье: ???%
Статус: Проверен
Изменил: fReeSouL (12 июн 2011, 08:57)
Скорость скачивания: 0 байт/сек
Скорость раздачи: 0 байт/сек
Последний сидер: Нет
Последний личер: 7 месяцев 26 дней 10 часов 25 минут 30 секунд назад
Приватный: Нет (DHT включён)
фильмы DVD Скачать торрент
Скачать торрент
[ Размер 34.58 КБ / Просмотров 7 ]


Вернуться в фильмы DVD

Кто сейчас на конференции

Сейчас этот форум просматривают: нет зарегистрированных пользователей и гости: 2

Привет!

Привет, меня зовут Няша, я что-то типа ангела хранителя RipFunClub'а. Так как админ меня не дописал, я еще глупенькая, и ни чего не умею и между прочим мне за это очень стыдно =( К тому же мой вид меня смущает ='(

А пока я могу только предложить зарегистрироваться или залогинеться =)