Главная » ТрекерВидео (кино, ТВ)Художественное киноЗарубежное Кино(Rips)Фантастика
Версия для печати
Бессовестная реклама: на этой странице пока нет =)

Интерстеллар / Interstellar (2014) HDRip | IMAX Edition

Правила форума

Сообщение

Интерстеллар / Interstellar (2014) HDRip | IMAX Edition

Сообщение ayatosem » 15 мар 2015, 13:38

Название: Интерстеллар
Оригинальное название: Interstellar
Год выхода: 2014
Жанр: фантастика, боевик, детектив, приключения
Режиссер: Кристофер Нолан
В ролях: Мэттью МакКонахи, Энн Хэтэуэй, Кейси Аффлек, Джессика Честейн, Тофер Грейс, Уэс Бентли, Майкл Кейн, Маккензи Фой, Джон Литгоу, Эллен Бёрстин

О фильме:
Когда засуха приводит человечество к продовольственному кризису, коллектив исследователей и учёных отправляется сквозь червоточину (которая предположительно соединяет области пространства-времени через большое расстояние) в путешествие, чтобы превзойти прежние ограничения для космических путешествий человека и переселить человечество на другую планету.

[Для просмотра изображения необходимо включить JavaScript]

Выпущено: США, Великобритания / Legendary Pictures, Lynda Obst Productions, Paramount Pictures, Warner Bros.
Продолжительность: 02:49:03
Озвучивание: Дублированное [чистый звук] Официальный

Формат: AVI (XviD)
Качество: HDRip [Рип с BDRip 720p]
Видео: 1019 kb/s, 656x368
Аудио: AC3, 128 kb/s (2 ch)
Размер: 1,400 Mb
General
Complete name : C:UsersuserDesktopIntersceLLar.2014.D.HDRip.1400Mb.IMAX.EDITION.avi
Format : AVI
Format/Info : Audio Video Interleave
File size : 1.37 GiB
Duration : 2h 49mn
Overall bit rate : 1 158 Kbps
Writing application : VirtualDubMod 1.5.10.2 (build 2540/release)
Writing library : VirtualDubMod build 2540/release

Video
ID : 0
Format : MPEG-4 Visual
Format profile : Advanced Simple@L5
Format settings, BVOP : 2
Format settings, QPel : No
Format settings, GMC : No warppoints
Format settings, Matrix : Default (MPEG)
Codec ID : XVID
Codec ID/Hint : XviD
Duration : 2h 49mn
Bit rate : 1 021 Kbps
Width : 656 pixels
Height : 368 pixels
Display aspect ratio : 16:9
Frame rate : 23.976 fps
Color space : YUV
Chroma subsampling : 4:2:0
Bit depth : 8 bits
Scan type : Progressive
Compression mode : Lossy
Bits/(Pixel*Frame) : 0.176
Stream size : 1.21 GiB (88%)
Writing library : XviD 1.2.1 (UTC 2008-12-04)

Audio
ID : 1
Format : AC-3
Format/Info : Audio Coding 3
Mode extension : CM (complete main)
Format settings, Endianness : Big
Codec ID : 2000
Duration : 2h 49mn
Bit rate mode : Constant
Bit rate : 128 Kbps
Channel(s) : 2 channels
Channel positions : Front: L R
Sampling rate : 48.0 KHz
Bit depth : 16 bits
Compression mode : Lossy
Stream size : 155 MiB (11%)
Alignment : Split accross interleaves
Interleave, duration : 42 ms (1.00 video frame)
Interleave, preload duration : 500 ms

phpBB [media]

Постеры

Автор

Аватара пользователя
ayatosem
Релизер
Релизер
 
Раздал: 10.55 ГБ
Скачал: 5.8 ГБ
Ратио: 1.820
Сообщения: 2355
Зарегистрирован: 10 май 2010, 10:09
Репутация: 22


Торрент

Автор: ayatosem
Добавлен: 15 мар 2015, 13:38
Размер: 1.37 ГБ
Размер: 1 468 522 496 байт
Сидеров: 762
Личеров: 488
Скачали: 2
Здоровье: 100%
Раздающих: 100%
Статус: Проверен
Изменил: T E K (15 мар 2015, 13:41)
Скорость скачивания: 0 байт/сек
Скорость раздачи: 0 байт/сек
Последний сидер: 8 месяцев 28 дней 18 часов 47 минут 53 секунды назад
Последний личер: 8 месяцев 28 дней 18 часов 47 минут 53 секунды назад
Приватный: Нет (DHT включён)
Фантастика Скачать торрент
Скачать торрент
[ Размер 14.39 КБ / Просмотров 29 ]


Вернуться в Фантастика

Кто сейчас на конференции

Сейчас этот форум просматривают: нет зарегистрированных пользователей и гости: 1

Привет!

Привет, меня зовут Няша, я что-то типа ангела хранителя RipFunClub'а. Так как админ меня не дописал, я еще глупенькая, и ни чего не умею и между прочим мне за это очень стыдно =( К тому же мой вид меня смущает ='(

А пока я могу только предложить зарегистрироваться или залогинеться =)