Главная » ТрекерВидео (кино, ТВ)Художественное киноЗарубежное Кино(Rips)Фантастика
Версия для печати
Бессовестная реклама: на этой странице пока нет =)

Мир Юрского периода / Jurassic World (2015) HDRip

Правила форума

Сообщение

Мир Юрского периода / Jurassic World (2015) HDRip

Сообщение tiikt » 26 сен 2015, 07:44

Название: Мир Юрского периода
Оригинальное название: Jurassic World
Год выхода: 2015
Жанр: фантастика, боевик, триллер, приключения
Режиссер: Колин Треворроу
В ролях: Крис Пратт, Брайс Даллас Ховард, Винсент Д’Онофрио, Ник Дж. Робинсон, Тай Симпкинс, Омар Си, Ирфан Кхан, Брайан Ти, Джейк Джонсон, Б.Д. Вонг

О фильме: Действие происходит через 22 года после событий «Парка Юрского периода». На острове Нублар функционирует парк, задуманный Джоном Хэммондом. Но к этому времени посещаемость уже начинает падать, и компания — владелец парка решает открыть новый аттракцион, чтобы привлечь посетителей. И вот снова тысячи людей спешат увидеть Мир Юрского периода, но безопасное на первый взгляд развлечение может обернуться угрозой для всего человечества...

Выпущено: США / Universal Pictures, Legendary Pictures, China Film Co., Amblin Entertainment
Продолжительность: 02:04:21
Озвучивание: Дублированное [iTunes]

Формат: AVI
Качество: HDRip
Видео: 1237 Кбит/c, 720x368
Аудио: AC3, 6 ch, 384 Кбит/с
Размер: 1.42 ГБ
General
Complete name : M1r.D1nosaurs.2015.D.HDRip.1400Mb.avi
Format : AVI
Format/Info : Audio Video Interleave
File size : 1.42 GiB
Duration : 2h 4mn
Overall bit rate : 1 631 Kbps
Writing application : VirtualDubModRus 1.5.10.2 (build 2542/release)
Writing library : VirtualDubMod build 2542/release

Video
ID : 0
Format : MPEG-4 Visual
Format profile : Advanced Simple@L5
Format settings, BVOP : 2
Format settings, QPel : No
Format settings, GMC : No warppoints
Format settings, Matrix : Default (H.263)
Muxing mode : Packed bitstream
Codec ID : XVID
Codec ID/Hint : XviD
Duration : 2h 4mn
Bit rate : 1 237 Kbps
Width : 720 pixels
Height : 368 pixels
Display aspect ratio : 1.957
Frame rate : 23.976 fps
Color space : YUV
Chroma subsampling : 4:2:0
Bit depth : 8 bits
Scan type : Progressive
Compression mode : Lossy
Bits/(Pixel*Frame) : 0.195
Stream size : 1.07 GiB (76%)
Writing library : XviD 66

Audio
ID : 1
Format : AC-3
Format/Info : Audio Coding 3
Mode extension : CM (complete main)
Format settings, Endianness : Big
Codec ID : 2000
Duration : 2h 4mn
Bit rate mode : Constant
Bit rate : 384 Kbps
Channel(s) : 6 channels
Channel positions : Front: L C R, Side: L R, LFE
Sampling rate : 48.0 KHz
Compression mode : Lossy
Stream size : 342 MiB (24%)
Alignment : Split accross interleaves
Interleave, duration : 42 ms (1.00 video frame)
Interleave, preload duration : 500 ms

Постеры

Автор

Аватара пользователя
tiikt
 
Раздал: 0 байт
Скачал: 0 байт
Ратио: Inf.
Сообщения: 392
Зарегистрирован: 09 ноя 2012, 16:23
Репутация: 6


Торрент

Автор: tiikt
Добавлен: 26 сен 2015, 07:44
Размер: 1.42 ГБ
Размер: 1 520 875 520 байт
Сидеров: 2187
Личеров: 643
Скачали: 0
Здоровье: 100%
Раздающих: 100%
Статус: Проверен
Изменил: T E K (26 сен 2015, 07:45)
Скорость скачивания: 0 байт/сек
Скорость раздачи: 0 байт/сек
Последний сидер: 5 дней 11 часов 12 минут 31 секунду назад
Последний личер: 5 дней 11 часов 12 минут 31 секунду назад
Приватный: Нет (DHT включён)
Фантастика Скачать торрент
Скачать торрент
[ Размер 14.95 КБ / Просмотров 22 ]


Вернуться в Фантастика

Кто сейчас на конференции

Сейчас этот форум просматривают: нет зарегистрированных пользователей и гости: 1

Привет!

Привет, меня зовут Няша, я что-то типа ангела хранителя RipFunClub'а. Так как админ меня не дописал, я еще глупенькая, и ни чего не умею и между прочим мне за это очень стыдно =( К тому же мой вид меня смущает ='(

А пока я могу только предложить зарегистрироваться или залогинеться =)