Главная » ТрекерВидео (кино, ТВ)Художественное киноЗарубежное Кино(Rips)Триллер
Версия для печати
Бессовестная реклама: на этой странице пока нет =)

Личность: неизвестна / ID:A [2011] DVDRip

Правила форума

Сообщение

Личность: неизвестна / ID:A [2011] DVDRip

Сообщение Yoshkinkot » 30 мар 2012, 18:31

Страна: Дания
Жанр: триллер
Год выпуска: 2011
Продолжительность: 01:40:09
Перевод:Любительский Одноголосый закадровый: Доп. инфо о переводе Grim-15,по субтитрам (by sonnyb)
Cубтитры: нет
Режиссер: Кристиан Е. Кристиансен / Christian E. Christiansen
В ролях: Тува Новотны, Флемминг Эневольд, Карстен Бьёрнлунд, Арно Бинар, Йенс Йорн Споттаг, Хенрик Прип
Описание: Женщина просыпается где-то во Франции, в реке. Рядом лежит сумка с несколькими миллионами евро и пистолетом, у неё шрам на животе и она совсем ничего не помнит. Вскоре она понимает, что её кто-то преследует. Узнав, что у неё датский акцент, она отправляется в Данию, чтобы найти ответы. Но оказывается, что её прошлая жизнь не так проста, как она надеялась.
Сэмпл: http://multi-up.com/676214
Качество видео: DVDRip
Формат видео: AVI
Видео: XviD,720x304 (2.37:1), 25 fps ~ 974,kbps avg,Bits/(Pixel*Frame): 0.178
Аудио: MPEG Audio Layer 3, 44,1 kHz stereo, 2 ch, 128 kbps
Общее
Полное имя : D:\Фильмы\ID.A (Christian E. Christiansen, 2011).avi
Формат : AVI
Формат/Информация : Audio Video Interleave
Размер файла : 796 Мбайт
Продолжительность : 1 ч. 40 м.
Общий поток : 1111 Кбит/сек
Название фильма : ID.A (Christian E. Christiansen, 2011) DVDRip Subs SB
Программа кодирования : VirtualDubModRus 1.5.10.2 (build 2542/release)
Библиотека кодирования : VirtualDubMod build 2542/release
Примечание : ripped by exvet for rutracker.org
Видео
Идентификатор : 0
Формат : MPEG-4 Visual
Профиль формата : Advanced Simple@L5
Параметр BVOP формата : 2
Параметр QPel формата : Нет
Параметр GMC формата : Без точки перехода
Параметр матрицы формата : Default (MPEG)
Идентификатор кодека : XVID
Идентификатор кодека/Подсказка : XviD
Продолжительность : 1 ч. 40 м.
Битрейт : 974 Кбит/сек
Ширина : 720 пикселей
Высота : 304 пикселя
Соотношение сторон : 16:9
Частота кадров : 25,000 кадров/сек
Цветовое пространство : YUV
Субдискретизация насыщенности : 4:2:0
Битовая глубина : 8 бит
Тип развёртки : Прогрессивная
Метод сжатия : С потерями
Бит/(Пиксели*Кадры) : 0.178
Размер потока : 698 Мбайт (88%)
Библиотека кодирования : XviD 64
Аудио
Идентификатор : 1
Формат : MPEG Audio
Версия формата : Version 1
Профиль формата : Layer 3
Режим : Joint stereo
Идентификатор кодека : 55
Идентификатор кодека/Подсказка : MP3
Продолжительность : 1 ч. 40 м.
Вид битрейта : Постоянный
Битрейт : 128 Кбит/сек
Каналы : 2 канала
Частота : 44,1 КГц
Метод сжатия : С потерями
Размер потока : 91,5 Мбайт (11%)
Выравнивание : Разделение по промежуткам
Продолжительность промежутка : 40 мс. (1,00 видеокадр)
Время предзагрузки промежутка : 501 мс.
[Для просмотра изображения необходимо включить JavaScript][Для просмотра изображения необходимо включить JavaScript][Для просмотра изображения необходимо включить JavaScript]

Постеры

Автор

Yoshkinkot
 


Торрент

Автор: Yoshkinkot
Добавлен: 30 мар 2012, 18:31
Размер: 796.05 МБ
Размер: 834 723 840 байт
Сидеров: 4
Личеров: 28
Скачали: 0
Здоровье: 14%
Статус: Проверен
Изменил: T E K (30 мар 2012, 19:24)
Скорость скачивания: 0 байт/сек
Скорость раздачи: 0 байт/сек
Последний сидер: 10 месяцев 15 часов 23 минуты 56 секунд назад
Последний личер: 10 месяцев 15 часов 22 минуты 50 секунд назад
Приватный: Нет (DHT включён)
Триллер Скачать торрент
Скачать торрент
[ Размер 16.17 КБ / Просмотров 6 ]


Re: Личность: неизвестна / ID:A [2011] DVDRip

Сообщение aXe » 31 мар 2012, 10:59

Как фильм??? Колитесь xDD Сюжет вроде бы ничего =))
Аватара пользователя
aXe
 
Раздал: 1.84 ТБ
Скачал: 1.01 ТБ
Ратио: 1.825
Сообщения: 47
Зарегистрирован: 05 сен 2009, 08:45
Репутация: 1


Вернуться в Триллер

Кто сейчас на конференции

Сейчас этот форум просматривают: нет зарегистрированных пользователей и гости: 1

Привет!

Привет, меня зовут Няша, я что-то типа ангела хранителя RipFunClub'а. Так как админ меня не дописал, я еще глупенькая, и ни чего не умею и между прочим мне за это очень стыдно =( К тому же мой вид меня смущает ='(

А пока я могу только предложить зарегистрироваться или залогинеться =)