Главная » ТрекерВидео (кино, ТВ)Художественное киноЗарубежное Кино(Rips)Триллер
Версия для печати
Бессовестная реклама: на этой странице пока нет =)

Встреча со злом / Абсолютное зло / Meeting Evil [2012] BDRemux 1080p

Правила форума

Сообщение

Встреча со злом / Абсолютное зло / Meeting Evil [2012] BDRemux 1080p

Сообщение ber192 » 24 окт 2012, 03:45

Встреча со злом / Абсолютное зло / Meeting Evil


Страна: США
Жанр: триллер, драма, криминал, детектив
Год выпуска: 2012
Продолжительность: 01:29:06
Перевод: Любительский (двухголосый закадровый) Команда "Чип и Дейл"
Cубтитры: английские
Оригинальная аудиодорожка: английский


Режиссер: Крис Фишер / Chris Fisher
В ролях: Сэмюэл Л. Джексон, Люк Уилсон, Лесли Бибб, Пейтон Лист, Трейси Томс, Райан Ли, Мьюз Уотсон, Дж.Д. Эвермор, Джиллиан Басерсон, Джейсон Алан Смит


Описание: Разочарованный жизнью молодой семьянин Джон открывает дверь таинственному незнакомцу Ричи. С этой минуты, сам того не желая, Джон становится участником убийственной поездки, которая преображает его из человека со слабой волей в отчаянного героя, готового пойти на все, чтобы защитить свою семью.
[Для просмотра изображения необходимо включить JavaScript] [Для просмотра изображения необходимо включить JavaScript]
Тип релиза: BDRemux 1080p
Контейнер: MKV
Видео: MPEG-4 AVC / NTSC 16:9 / 1920x1080 (1.78:1) / 26500 kbps / 23.976 fps / 0.534 bit/pixel
Аудио 1: Russian / AC3 / 48 kHz / 2 Ch / 192 kbps / DVO
Аудио 2: English / DTS-HD Master Audio / 5.1 Ch / 48 kHz / 3250 kbps / 24-bit (DTS Core: 5.1 / 48 kHz / 1510 kbps / 24-bit)
Формат субтитров: softsub (SRT)
Навигация по главам: есть
MediaInfo
Общее
Уникальный идентификатор : 175919202137866336708569539925337264290 (0x8458CE50B5302C0E814DEA39D3B150A2)
Полное имя : D:\Meeting Evil.2012.BDRemux.1080p.mkv
Формат : Matroska
Версия формата : Version 2
Размер файла : 18,0 Гбайт
Продолжительность : 1 ч. 29 м.
Режим общего битрейта : Переменный
Общий поток : 28,9 Мбит/сек
Название фильма : Meeting Evil
Дата кодирования : UTC 2012-07-18 16:05:13
Программа кодирования : mkvmerge v5.6.0 ('Kenya Kane') built on May 27 2012 16:44:04
Библиотека кодирования : libebml v1.2.3 + libmatroska v1.3.0
Видео
Идентификатор : 1
Формат : AVC
Формат/Информация : Advanced Video Codec
Профиль формата : High@L4.1
Параметр CABAC формата : Да
Параметр ReFrames формата : 2 кадра
Идентификатор кодека : V_MPEG4/ISO/AVC
Продолжительность : 1 ч. 29 м.
Вид битрейта : Переменный
Битрейт : 26,5 Мбит/сек
Ширина : 1920 пикселей
Высота : 1080 пикселей
Соотношение сторон : 16:9
Частота кадров : 23,976 кадра/сек
Цветовое пространство : YUV
Субдискретизация насыщенности : 4:2:0
Битовая глубина : 8 бит
Тип развёртки : Прогрессивная
Бит/(Пиксели*Кадры) : 0.534
Размер потока : 16,5 Гбайт (92%)
Язык : English
Default : Да
Forced : Нет
Аудио #1
Идентификатор : 2
Формат : AC-3
Формат/Информация : Audio Coding 3
Расширение режима : CM (complete main)
Параметр Endianness формата : Big
Идентификатор кодека : A_AC3
Продолжительность : 1 ч. 29 м.
Вид битрейта : Постоянный
Битрейт : 192 Кбит/сек
Каналы : 2 канала
Расположение каналов : Front: L R
Частота : 48,0 КГц
Битовая глубина : 16 бит
Метод сжатия : С потерями
Размер потока : 122 Мбайт (1%)
Заголовок : DVO
Язык : Russian
Default : Да
Forced : Нет
Аудио #2
Идентификатор : 3
Формат : DTS
Формат/Информация : Digital Theater Systems
Профиль формата : MA / Core
Идентификатор кодека : A_DTS
Продолжительность : 1 ч. 29 м.
Вид битрейта : Переменный
Битрейт : 1561 Кбит/сек / 1510 Кбит/сек
Каналы : 6 каналов
Расположение каналов : Front: L C R, Side: L R, LFE
Частота : 48,0 КГц
Битовая глубина : 24 бит
Метод сжатия : Без потерь / Lossy
Заголовок : Original
Язык : English
Default : Нет
Forced : Нет
Текст
Идентификатор : 4
Формат : UTF-8
Идентификатор кодека : S_TEXT/UTF8
Идентификатор кодека/Информация : UTF-8 Plain Text
Заголовок : Original
Язык : English
Default : Нет
Forced : Нет
Меню
00:00:00.000 : en:Chapter 00
00:04:34.190 : en:Chapter 01
00:10:50.608 : en:Chapter 02
00:16:17.059 : en:Chapter 03
00:21:29.162 : en:Chapter 04
00:25:44.793 : en:Chapter 05
00:30:27.033 : en:Chapter 06
00:37:13.272 : en:Chapter 07
00:42:01.310 : en:Chapter 08
00:45:43.323 : en:Chapter 09
00:52:52.377 : en:Chapter 10
00:55:39.294 : en:Chapter 11
01:00:18.072 : en:Chapter 12
01:04:46.883 : en:Chapter 13
01:11:45.134 : en:Chapter 14
01:19:17.544 : en:Chapter 15
Скриншоты
[Для просмотра изображения необходимо включить JavaScript][Для просмотра изображения необходимо включить JavaScript][Для просмотра изображения необходимо включить JavaScript][Для просмотра изображения необходимо включить JavaScript][Для просмотра изображения необходимо включить JavaScript]

Постеры

Автор

Аватара пользователя
ber192
 
Раздал: 2.32 ТБ
Скачал: 532.73 ГБ
Ратио: 4.468
Сообщения: 186
Зарегистрирован: 20 апр 2011, 05:13
Репутация: 16
Откуда: Оттуда


Торрент

Автор: ber192
Добавлен: 24 окт 2012, 03:45
Размер: 17.97 ГБ
Размер: 19 296 221 777 байт
Сидеров: 23
Личеров: 14
Скачали: 0
Здоровье: 100%
Статус: Проверен
Изменил: ber192 (24 окт 2012, 03:53)
Скорость скачивания: 0 байт/сек
Скорость раздачи: 0 байт/сек
Последний сидер: 7 месяцев 24 дня 11 часов 36 минут 27 секунд назад
Последний личер: 7 месяцев 24 дня 11 часов 36 минут 27 секунд назад
Приватный: Нет (DHT включён)
Триллер Скачать торрент
Скачать торрент
[ Размер 90.4 КБ / Просмотров 5 ]


Вернуться в Триллер

Кто сейчас на конференции

Сейчас этот форум просматривают: нет зарегистрированных пользователей и гости: 1

Привет!

Привет, меня зовут Няша, я что-то типа ангела хранителя RipFunClub'а. Так как админ меня не дописал, я еще глупенькая, и ни чего не умею и между прочим мне за это очень стыдно =( К тому же мой вид меня смущает ='(

А пока я могу только предложить зарегистрироваться или залогинеться =)