Главная » ТрекерВидео (кино, ТВ)Художественное киноЗарубежное Кино(Rips)Триллер
Версия для печати
Бессовестная реклама: на этой странице пока нет =)

Обещание / The Pledge (2001) DVDRip-AVC

Правила форума

Сообщение

Обещание / The Pledge (2001) DVDRip-AVC

Сообщение FireCool » 20 фев 2013, 14:03

Обещание / The Pledge

«Detective Jerry Black has made a promise he can't break, to catch a killer he can't find.»

Год выпуска: 2001
Выпущено: США / Morgan Creek Productions
Жанр: триллер, драма, криминал, детектив
Продолжительность: 01:58:07
Режиссер: Шон Пенн / Sean Penn
В ролях: Джек Николсон, Патришия Кларксон, Бенисио Дель Торо, Дейл Дикки, Венди Дональдсон, Эдриан Дорваль, Робин Райт, Ванесса Редгрейв, Аарон Экхарт, Хелен Миррен, Микки Рурк, Сэм Шепард, Гарри Дин Стэнтон, Шоун Хентер, Кэти Дженсен, Тэрин Ноулз

Описание:
Детектив отдела по расследованию убийств Джерри Блэк выходит на пенсию. Последний рабочий день Джерри заканчивается прощальной вечеринкой, где коллеги вручают виновнику торжества билет на самолет в Мексику, где Блэк давно мечтал порыбачить.
В это же самое время в горах находят изуродованный труп восьмилетней девочки. Выход на пенсию откладывается, как, впрочем, и поездка в Мексику: Джерри выезжает на место преступления. И именно старый детектив берет на себя тяжелое бремя сообщить родителям о том, что их ребенка безжалостно убили.
Мать девочки требует от Блэка обещание, что он обязательно найдет убийцу. И Джерри дает это обещание, еще не представляя, что оно навсегда изменит его жизнь…

Качество: DVDRip-AVC
Формат: MKV
Видео: H.264, 716 x 430 @ 1021 x 430, 25 fps, ~1752 Кбит/с
Аудио 1: AC3, 448 Кбит/с, 48 kHz (6 ch) Russian R5 / Дубляж
Аудио 2: AC3, 448 Кбит/с, 48 kHz (6 ch) English
Cубтитры: Русские, Английские

General
Complete name : D:VIDEOThe.Pledge.2001.DVDRip-AVC.Rus.Eng.mkv
Format : Matroska
File size : 2.19 GiB
Duration : 1h 58mn
Overall bit rate : 2 646 Kbps
Encoded date : UTC 2010-10-23 00:14:20
Writing application : mkvmerge v3.3.0 ('Language') built on Mar 24 2010 14:59:24
Writing library : libebml v0.8.0 + libmatroska v0.9.0

Video
ID : 1
Format : AVC
Format/Info : Advanced Video Codec
Format profile : High@L4.0
Format settings, CABAC : Yes
Format settings, ReFrames : 9 frames
Muxing mode : Container profile=Unknown@4.0
Codec ID : V_MPEG4/ISO/AVC
Duration : 1h 58mn
Bit rate : 1 752 Kbps
Width : 716 pixels
Height : 430 pixels
Display aspect ratio : 2.35:1
Original display aspect ratio : 2.35:1
Frame rate : 25.000 fps
Color space : YUV
Chroma subsampling : 4:2:0
Bit depth : 8 bits
Scan type : Progressive
Bits/(Pixel*Frame) : 0.228
Stream size : 1.40 GiB (64%)
Title : The Pledge
Writing library : x264 core 107 r1745 4785e8e
Encoding settings : cabac=1 / ref=9 / deblock=1:-2:-1 / analyse=0x3:0x133 / me=umh / subme=10 / psy=1 / psy_rd=0.90:0.10 / mixed_ref=1 / me_range=24 / chroma_me=0 / trellis=2 / 8x8dct=1 / cqm=0 / deadzone=21,11 / fast_pskip=0 / chroma_qp_offset=-3 / threads=3 / sliced_threads=0 / nr=0 / decimate=0 / interlaced=0 / constrained_intra=0 / bframes=9 / b_pyramid=2 / b_adapt=2 / b_bias=0 / direct=3 / weightb=1 / open_gop=0 / weightp=2 / keyint=250 / keyint_min=25 / scenecut=40 / intra_refresh=0 / rc_lookahead=80 / rc=2pass / mbtree=1 / bitrate=1752 / ratetol=1.0 / qcomp=0.70 / qpmin=10 / qpmax=51 / qpstep=4 / cplxblur=20.0 / qblur=0.5 / vbv_maxrate=25000 / vbv_bufsize=31250 / ip_ratio=1.40 / aq=2:0.90 / nal_hrd=none
Language : English

Audio #1
ID : 2
Format : AC-3
Format/Info : Audio Coding 3
Mode extension : CM (complete main)
Codec ID : A_AC3
Duration : 1h 58mn
Bit rate mode : Constant
Bit rate : 448 Kbps
Channel(s) : 6 channels
Channel positions : Front: L C R, Side: L R, LFE
Sampling rate : 48.0 KHz
Bit depth : 16 bits
Stream size : 379 MiB (17%)
Title : Дубляж (R5)
Language : Russian

Audio #2
ID : 3
Format : AC-3
Format/Info : Audio Coding 3
Mode extension : CM (complete main)
Codec ID : A_AC3
Duration : 1h 58mn
Bit rate mode : Constant
Bit rate : 448 Kbps
Channel(s) : 6 channels
Channel positions : Front: L C R, Side: L R, LFE
Sampling rate : 48.0 KHz
Bit depth : 16 bits
Stream size : 379 MiB (17%)
Title : Английский
Language : English

Text #1
ID : 4
Format : UTF-8
Codec ID : S_TEXT/UTF8
Codec ID/Info : UTF-8 Plain Text
Title : Русские
Language : Russian

Text #2
ID : 5
Format : UTF-8
Codec ID : S_TEXT/UTF8
Codec ID/Info : UTF-8 Plain Text
Title : Английские
Language : English

[Для просмотра изображения необходимо включить JavaScript] [Для просмотра изображения необходимо включить JavaScript] [Для просмотра изображения необходимо включить JavaScript]

Постеры

Автор

Аватара пользователя
FireCool
Младший админ
Младший админ
 
Раздал: 4.58 ТБ
Скачал: 394.82 ГБ
Ратио: 11.877
Сообщения: 1299
Зарегистрирован: 03 май 2009, 07:58
Репутация: 48
Откуда: Красноярск


Торрент

Автор: FireCool
Добавлен: 20 фев 2013, 14:03
Размер: 2.19 ГБ
Размер: 2 347 621 003 байт
Сидеров: 59
Личеров: 94
Скачали: 0
Здоровье: 62%
Статус: Проверен
Изменил: FireCool (20 фев 2013, 14:09)
Скорость скачивания: 0 байт/сек
Скорость раздачи: 0 байт/сек
Последний сидер: 5 месяцев 10 дней 12 часов 40 минут 28 секунд назад
Последний личер: 5 месяцев 10 дней 12 часов 40 минут 28 секунд назад
Приватный: Нет (DHT включён)
Триллер Скачать торрент
Скачать торрент
[ Размер 11.32 КБ / Просмотров 12 ]


Вернуться в Триллер

Кто сейчас на конференции

Сейчас этот форум просматривают: нет зарегистрированных пользователей и гости: 1

Привет!

Привет, меня зовут Няша, я что-то типа ангела хранителя RipFunClub'а. Так как админ меня не дописал, я еще глупенькая, и ни чего не умею и между прочим мне за это очень стыдно =( К тому же мой вид меня смущает ='(

А пока я могу только предложить зарегистрироваться или залогинеться =)