Главная » ТрекерВидео (кино, ТВ)Художественное киноЗарубежное Кино(Rips)Триллер
Версия для печати
Бессовестная реклама: на этой странице пока нет =)

Убить гонца / Kill the Messenger (2014) HDRip | Лицензия

Правила форума

Сообщение

Убить гонца / Kill the Messenger (2014) HDRip | Лицензия

Сообщение ayatosem » 22 фев 2015, 17:34

Название: Убить гонца
Оригинальное название: Kill the Messenger
Год выхода: 2014
Жанр: триллер, драма, криминал, детектив, биография
Режиссер: Майкл Куэста
В ролях: Джереми Реннер, Роберт Патрик, Роберт Пралго, Хаджи Голайтли, Тед Хукаби, Мэри Элизабет Уинстэд, Лукас Хеджес, Розмари ДеУитт, Мэттью Линтц, Паркер Дуглас

О фильме: Репортер, собирая материал для статьи, попадает в нестандартную ситуацию: он находит секретные файлы ЦРУ, в которых четко прописано причастие госорганов к транспортировке кокаина в особо крупных размерах в Калифорнию. Несмотря на все неприятности, последующие за разоблачением, публикация выходит в одном из самых известных журналов США. Существование репортера становится нежелательным для всех, кто хоть как-то соприкасался с «кокаиновым» делом. После широкой огласки статьи убить журналиста просто так нельзя, ведь тогда правдивость материала станет очевидной, зато ведомство может обвинить репортера в другом…

[Для просмотра изображения необходимо включить JavaScript]

Выпущено: США
Продолжительность: 01:51:55
Озвучивание: Дублированное [Лицензия]

Формат: AVI (XviD)
Качество: HDRip
Видео: 1470 kb/s, 720x304
Аудио: AC3, 384 kb/s (2 ch)
General
Complete name : Ubit.G0nca.2014.D.HDRip.1400MB.avi
Format : AVI
Format/Info : Audio Video Interleave
File size : 1.46 GiB
Duration : 1h 51mn
Overall bit rate : 1 863 Kbps
Writing application : VirtualDubMod 1.5.10.2 (build 2540/release)
Writing library : VirtualDubMod build 2540/release

Video
ID : 0
Format : MPEG-4 Visual
Format profile : Advanced Simple@L5
Format settings, BVOP : 2
Format settings, QPel : No
Format settings, GMC : No warppoints
Format settings, Matrix : Default (MPEG)
Codec ID : XVID
Codec ID/Hint : XviD
Duration : 1h 51mn
Bit rate : 1 470 Kbps
Width : 720 pixels
Height : 304 pixels
Display aspect ratio : 2.35:1
Frame rate : 24.000 fps
Color space : YUV
Chroma subsampling : 4:2:0
Bit depth : 8 bits
Scan type : Progressive
Compression mode : Lossy
Bits/(Pixel*Frame) : 0.280
Stream size : 1.15 GiB (79%)
Writing library : XviD 1.2.1 (UTC 2008-12-04)

Audio
ID : 1
Format : AC-3
Format/Info : Audio Coding 3
Mode extension : CM (complete main)
Format settings, Endianness : Big
Codec ID : 2000
Duration : 1h 51mn
Bit rate mode : Constant
Bit rate : 384 Kbps
Channel(s) : 2 channels
Channel positions : Front: L R
Sampling rate : 48.0 KHz
Bit depth : 16 bits
Compression mode : Lossy
Stream size : 307 MiB (21%)
Alignment : Split accross interleaves
Interleave, duration : 42 ms (1.00 video frame)
Interleave, preload duration : 500 ms

Постеры

Автор

Аватара пользователя
ayatosem
Релизер
Релизер
 
Раздал: 10.55 ГБ
Скачал: 5.8 ГБ
Ратио: 1.820
Сообщения: 2355
Зарегистрирован: 10 май 2010, 10:09
Репутация: 22


Торрент

Автор: ayatosem
Добавлен: 04 июн 2015, 10:58
Размер: 1.46 ГБ
Размер: 1 564 774 400 байт
Сидеров: 688
Личеров: 431
Скачали: 4
Здоровье: 100%
Раздающих: 100%
Статус: Обновлён
Изменил: T E K (04 июн 2015, 10:59)
Скорость скачивания: 0 байт/сек
Скорость раздачи: 0 байт/сек
Последний сидер: 2 года 7 месяцев 11 дней 43 минуты 24 секунды назад
Последний личер: 2 года 7 месяцев 11 дней 43 минуты 24 секунды назад
Приватный: Нет (DHT включён)
Триллер Скачать торрент
Скачать торрент
[ Размер 15.27 КБ / Просмотров 13 ]


Вернуться в Триллер

Кто сейчас на конференции

Сейчас этот форум просматривают: нет зарегистрированных пользователей и гости: 1

Привет!

Привет, меня зовут Няша, я что-то типа ангела хранителя RipFunClub'а. Так как админ меня не дописал, я еще глупенькая, и ни чего не умею и между прочим мне за это очень стыдно =( К тому же мой вид меня смущает ='(

А пока я могу только предложить зарегистрироваться или залогинеться =)