Главная » ТрекерТрекерМусор
Версия для печати
Бессовестная реклама: на этой странице пока нет =)

Макс Фадеев - Дискография (1992-2001) FLAC

Забаненные и не прошедшие контроль торренты

Сообщение

Макс Фадеев - Дискография (1992-2001) FLAC

Сообщение Ded » 17 июн 2012, 04:56

[Для просмотра изображения необходимо включить JavaScript]

Название: Дискография
Исполнитель: Макс Фадеев
Год: 1992 - 2001
Жанр: Meditative, New Age
Страна: Россия

Продолжительность: 06:13:26
Формат/Кодек: FLAC
Битрейт аудио: Lossless

Треклист

[spoiler="01 - 1992 -Танцуй На Битом Стекле (LP-версия)"]

[Для просмотра изображения необходимо включить JavaScript]
Исполнитель: Макс Фадеев
Альбом: Танцуй На Битом Стекле (LP-версия)
Тип релиза: Рип с винила
Жанр: Meditative
Дата выпуска: 1992
Страна: Россия
Лейбл: PolyMix / A/O Русский диск
Формат: FLAC (tracks)
Битрейт: 418-891 kbps
Продолжительность: 00:41:18

Треклист:
01. Время диких зверей [00:06:49]
02. Иди на свет [00:05:29]
03. Я возвращался из ада [00:04:20]
04. Кокаин [00:03:22]
05. Минуэт [00:00:29]
06. Танцуй на битом стекле [00:02:59]
07. Иди [00:03:04]
08. Колыбельная [00:03:38]
09. Белый дым [00:03:07]
10. Опера [00:03:12]
11. Кто ты [00:04:45]

[spoiler="Данные записи"]
Код: Выделить всё
Класс состояния винила: VG++
Устройство воспроизведения: Grundig Fine Arts TT 1 (Германия)
Игла: Ortofon X1 MC
АЦП: Sound Blaster X-Fi Xtreme Audio
Программа-оцифровщик: Sound Forge 9.0
Обработка: Разрезка на треки, (Sound Forge 9.0); Подавление шумов (Noise Reduction 2.0); Сжатие (Flac fronted v. 1.7.1).
Формат записи (Bit/kHz): 16/44,1
Формат раздачи (Bit/kHz): 16/44,1[/spoiler]

[spoiler="02 - 1997 - Ножницы (2CD. Первый тираж) Диск 1"]

[Для просмотра изображения необходимо включить JavaScript]
Исполнитель: Макс Фадеев
Альбом: Ножницы (2 CD) Диск 1
Тип релиза: Студийная запись
Жанр: Pop
Дата выпуска: 1997
Страна: Россия
Лейбл: Кристальная музыка / JSP Jam
Формат: FLAC (tracks)
Битрейт: 641-922 kbps
Продолжительность: 00:25:28

Треклист:
01. Акула [00:03:56]
02. Сестричка [00:03:40]
03. Тихо Несет Вода [00:04:59]
04. Беги По Небу [00:04:50]
05. Кусай Свои Губы [00:03:28]
06. Кошка [00:04:32]

[spoiler="Отчёт EAC"]
Код: Выделить всё
Exact Audio Copy V0.99 prebeta 5 from 4. May 2009

EAC extraction logfile from 22. July 2009, 2:03

Макс Фадеев / Ножницы (2 CD) Диск 1

Used drive: _NEC_DVD_RW_ND-3540AAdapter: 0ID: 0

Read mode: Secure
Utilize accurate stream : Yes
Defeat audio cache: Yes
Make use of C2 pointers : No

Read offset correction: 48
Overread into Lead-In and Lead-Out: No
Fill up missing offset samples with silence : Yes
Delete leading and trailing silent blocks: No
Null samples used in CRC calculations: Yes
Used interface: Native Win32 interface for Win NT & 2000
Gap handling: Appended to previous track

Used output format: User Defined Encoder
Selected bitrate: 320 kBit/s
Quality: High
Add ID3 tag: No
Command line compressor: C:Program FilesExact Audio CopyFlacflac.exe
Additional command line options : -6 -V -T "ARTIST=%a" -T "TITLE=%t" -T "ALBUM=%g" -T "DATE=%y" -T "TRACKNUMBER=%n" -T "GENRE=%m" -T "COMMENT=%e" %s -o %d

Track1

Filename C:Recovered FilesAudioМакс ФадеевCD1�1 - Акула.wav

Pre-gap length0:00:02.00

Peak level 94.4 %
Track quality 100.0 %
Test CRC 15CE4494
Copy CRC 15CE4494
Accurately ripped (confidence 1)[B8B3155B]
Copy OK

Track2

Filename C:Recovered FilesAudioМакс ФадеевCD1�2 - Сестричка.wav

Pre-gap length0:00:03.00

Peak level 94.3 %
Track quality 100.0 %
Test CRC D572CE9C
Copy CRC D572CE9C
Accurately ripped (confidence 1)[81CC1C3F]
Copy OK

Track3

Filename C:Recovered FilesAudioМакс ФадеевCD1�3 - Тихо Несет Вода.wav

Pre-gap length0:00:03.00

Peak level 94.3 %
Track quality 100.0 %
Test CRC EE5260F9
Copy CRC EE5260F9
Accurately ripped (confidence 1)[DA280DC9]
Copy OK

Track4

Filename C:Recovered FilesAudioМакс ФадеевCD1�4 - Беги По Небу.wav

Pre-gap length0:00:03.00

Peak level 85.9 %
Track quality 100.0 %
Test CRC 78EA2F30
Copy CRC 78EA2F30
Accurately ripped (confidence 1)[2415F47B]
Copy OK

Track5

Filename C:Recovered FilesAudioМакс ФадеевCD1�5 - Кусай Свои Губы.wav

Pre-gap length0:00:03.00

Peak level 95.1 %
Track quality 100.0 %
Test CRC 6ECCAACE
Copy CRC 6ECCAACE
Accurately ripped (confidence 1)[04A17591]
Copy OK

Track6

Filename C:Recovered FilesAudioМакс ФадеевCD1�6 - Кошка.wav

Pre-gap length0:00:03.00

Peak level 89.9 %
Track quality 100.0 %
Test CRC 868CEC43
Copy CRC 868CEC43
Cannot be verified as accurate (confidence 1)[1F7C254A], AccurateRip returned [9FEBE253]
Copy OK
5 track(s) accurately ripped
1 track(s) could not be verified as accurate

Some tracks could not be verified as accurate

No errors occurred

End of status report[/spoiler]

[spoiler="03 - 1997 - Ножницы (2CD. Первый тираж) Диск 2"]

[Для просмотра изображения необходимо включить JavaScript]
Исполнитель: Макс Фадеев
Альбом: Ножницы (2 CD) Диск 2
Тип релиза: Студийная запись
Жанр: Pop
Дата выпуска: 1997
Страна: Росия
Лейбл: Кристальная музыка / JSP Jam
Формат: FLAC (tracks)
Битрейт: 816-915 kbps
Продолжительность: 00:20:38

Треклист:
01. Танцы на стеклах [00:04:39]
02. Плачь и кричи [00:04:33]
03. В области сердца [00:04:07]
04. Ножницы [00:03:40]
05. Бабочки [00:03:38]

[spoiler="Отчёт EAC"]
Код: Выделить всё
Exact Audio Copy V0.99 prebeta 5 from 4. May 2009

EAC extraction logfile from 22. July 2009, 2:45

Макс Фадеев / Ножницы (2 CD) Диск 2

Used drive: _NEC_DVD_RW_ND-3540AAdapter: 0ID: 0

Read mode: Secure
Utilize accurate stream : Yes
Defeat audio cache: Yes
Make use of C2 pointers : No

Read offset correction: 48
Overread into Lead-In and Lead-Out: No
Fill up missing offset samples with silence : Yes
Delete leading and trailing silent blocks: No
Null samples used in CRC calculations: Yes
Used interface: Native Win32 interface for Win NT & 2000
Gap handling: Appended to previous track

Used output format: User Defined Encoder
Selected bitrate: 320 kBit/s
Quality: High
Add ID3 tag: No
Command line compressor: C:Program FilesExact Audio CopyFlacflac.exe
Additional command line options : -6 -V -T "ARTIST=%a" -T "TITLE=%t" -T "ALBUM=%g" -T "DATE=%y" -T "TRACKNUMBER=%n" -T "GENRE=%m" -T "COMMENT=%e" %s -o %d

Track1

Filename C:Recovered FilesAudioМакс ФадеевCD2�1 - Танцы на стеклах.wav

Pre-gap length0:00:02.00

Peak level 94.3 %
Track quality 100.0 %
Test CRC AA202895
Copy CRC AA202895
Accurately ripped (confidence 1)[C7CB6D38]
Copy OK

Track2

Filename C:Recovered FilesAudioМакс ФадеевCD2�2 - Плачь и кричи.wav

Pre-gap length0:00:03.00

Peak level 94.3 %
Track quality 100.0 %
Test CRC A4707508
Copy CRC A4707508
Accurately ripped (confidence 1)[4CB24985]
Copy OK

Track3

Filename C:Recovered FilesAudioМакс ФадеевCD2�3 - В области сердца.wav

Pre-gap length0:00:03.00

Peak level 94.4 %
Track quality 100.0 %
Test CRC 42B5DBD4
Copy CRC 42B5DBD4
Accurately ripped (confidence 1)[696F7EF2]
Copy OK

Track4

Filename C:Recovered FilesAudioМакс ФадеевCD2�4 - Ножницы.wav

Pre-gap length0:00:03.00

Peak level 94.4 %
Track quality 99.9 %
Test CRC 9F298773
Copy CRC 9F298773
Accurately ripped (confidence 1)[87BDBBD0]
Copy OK

Track5

Filename C:Recovered FilesAudioМакс ФадеевCD2�5 - Бабочки.wav

Pre-gap length0:00:03.00

Peak level 94.3 %
Track quality 100.0 %
Test CRC 1A2F9BF4
Copy CRC 1A2F9BF4
Accurately ripped (confidence 1)[0094B882]
Copy OK
All tracks accurately ripped

No errors occurred

End of status report[/spoiler]

[spoiler="04 - 1997 - Ножницы"]

[Для просмотра изображения необходимо включить JavaScript]
Исполнитель: Макс Фадеев
Альбом: Ножницы
Тип релиза: Студийная запись
Жанр: Meditative
Дата выпуска: 1997
Страна: Россия
Лейбл: Кристальная музыка / JSP Jam
Формат: FLAC (tracks)
Битрейт: 632-977 kbps
Продолжительность: 00:49:39

Треклист:
01. Акула [00:03:54]
02. Сестричка [00:03:35]
03. Тихо несет вода [00:04:52]
04. Беги по небу [00:04:46]
05. Кусай свои губы [00:03:25]
06. Кошка [00:04:30]
07. Танцы еа стеклах [00:04:32]
08. Плач и кричи [00:04:30]
09. В области сердца [00:03:59]
10. Ножницы [00:03:37]
11. Бабочки [00:03:38]
12. Демомикс [00:04:15]

[spoiler="Отчёт EAC"]
Код: Выделить всё
Exact Audio Copy V0.99 prebeta 5 from 4. May 2009

EAC extraction logfile from 3. August 2009, 20:14

Макс Фадеев / Ножницы

Used drive: _NEC_DVD_RW_ND-3540AAdapter: 0ID: 0

Read mode: Secure
Utilize accurate stream : Yes
Defeat audio cache: Yes
Make use of C2 pointers : No

Read offset correction: 48
Overread into Lead-In and Lead-Out: No
Fill up missing offset samples with silence : Yes
Delete leading and trailing silent blocks: No
Null samples used in CRC calculations: Yes
Used interface: Native Win32 interface for Win NT & 2000
Gap handling: Appended to previous track

Used output format: User Defined Encoder
Selected bitrate: 320 kBit/s
Quality: High
Add ID3 tag: No
Command line compressor: C:Program FilesExact Audio CopyFlacflac.exe
Additional command line options : -6 -V -T "ARTIST=%a" -T "TITLE=%t" -T "ALBUM=%g" -T "DATE=%y" -T "TRACKNUMBER=%n" -T "GENRE=%m" -T "COMMENT=%e" %s -o %d

Track1

Filename C:Recovered FilesAudioМакс ФадеевМакс Фадеев - Ножницы (1997)�1 - Акула.wav

Pre-gap length0:00:02.00

Peak level 100.0 %
Track quality 100.0 %
Test CRC E3961638
Copy CRC E3961638
Track not present in AccurateRip database
Copy OK

Track2

Filename C:Recovered FilesAudioМакс ФадеевМакс Фадеев - Ножницы (1997)�2 - Сестричка.wav

Peak level 98.6 %
Track quality 99.9 %
Test CRC 1C738049
Copy CRC 1C738049
Track not present in AccurateRip database
Copy OK

Track3

Filename C:Recovered FilesAudioМакс ФадеевМакс Фадеев - Ножницы (1997)�3 - Тихо несет вода.wav

Peak level 98.8 %
Track quality 100.0 %
Test CRC B7441C36
Copy CRC B7441C36
Track not present in AccurateRip database
Copy OK

Track4

Filename C:Recovered FilesAudioМакс ФадеевМакс Фадеев - Ножницы (1997)�4 - Беги по небу.wav

Peak level 99.4 %
Track quality 99.9 %
Test CRC EEF20B6A
Copy CRC EEF20B6A
Track not present in AccurateRip database
Copy OK

Track5

Filename C:Recovered FilesAudioМакс ФадеевМакс Фадеев - Ножницы (1997)�5 - Кусай свои губы.wav

Peak level 99.2 %
Track quality 100.0 %
Test CRC 3D632773
Copy CRC 3D632773
Track not present in AccurateRip database
Copy OK

Track6

Filename C:Recovered FilesAudioМакс ФадеевМакс Фадеев - Ножницы (1997)�6 - Кошка.wav

Peak level 99.0 %
Track quality 100.0 %
Test CRC 996B9E14
Copy CRC 996B9E14
Track not present in AccurateRip database
Copy OK

Track7

Filename C:Recovered FilesAudioМакс ФадеевМакс Фадеев - Ножницы (1997)�7 - Танцы еа стеклах.wav

Peak level 100.0 %
Track quality 99.9 %
Test CRC C76A7B24
Copy CRC C76A7B24
Track not present in AccurateRip database
Copy OK

Track8

Filename C:Recovered FilesAudioМакс ФадеевМакс Фадеев - Ножницы (1997)�8 - Плач и кричи.wav

Peak level 99.4 %
Track quality 100.0 %
Test CRC 46223055
Copy CRC 46223055
Track not present in AccurateRip database
Copy OK

Track9

Filename C:Recovered FilesAudioМакс ФадеевМакс Фадеев - Ножницы (1997)�9 - В области сердца.wav

Peak level 99.4 %
Track quality 100.0 %
Test CRC B9591C0A
Copy CRC B9591C0A
Track not present in AccurateRip database
Copy OK

Track 10

Filename C:Recovered FilesAudioМакс ФадеевМакс Фадеев - Ножницы (1997)10 - Ножницы.wav

Peak level 99.0 %
Track quality 100.0 %
Test CRC E4DD07C1
Copy CRC E4DD07C1
Track not present in AccurateRip database
Copy OK

Track 11

Filename C:Recovered FilesAudioМакс ФадеевМакс Фадеев - Ножницы (1997)11 - Бабочки.wav

Peak level 99.3 %
Track quality 100.0 %
Test CRC D3106870
Copy CRC D3106870
Track not present in AccurateRip database
Copy OK

Track 12

Filename C:Recovered FilesAudioМакс ФадеевМакс Фадеев - Ножницы (1997)12 - Демомикс.wav

Peak level 99.7 %
Track quality 100.0 %
Test CRC 7AEA858E
Copy CRC 7AEA858E
Track not present in AccurateRip database
Copy OK
None of the tracks are present in the AccurateRip database

No errors occurred

End of status report[/spoiler]

[spoiler="05 - 1998 - Танцуй На Битом Стекле"]

[Для просмотра изображения необходимо включить JavaScript]
Исполнитель: Макс Фадеев
Альбом: Танцуй на битом стекле
Тип релиза: Студийная запись
Жанр: Meditative
Дата выпуска: 1998
Страна: Россия
Лейбл: J.S.P. Company / группа ДЖЕМ
Формат: FLAC (tracks)
Битрейт: 531-916 kbps
Продолжительность: 01:03:30

Треклист:
01. Время диких зверей [00:06:52]
02. Иди на свет [00:05:34]
03. Кокаин [00:03:21]
04. Иди! [00:03:04]
05. Игра без огня [00:04:36]
06. Белый дым [00:03:08]
07. Кто ты? [00:04:45]
08. Моей Ленке [00:00:28]
09. Колыбельная [00:03:39]
10. Танцуй на битом стекле [00:03:01]
11. Воскреси! [00:02:48]
12. Крохотный дуэт [00:03:43]
13. Королева [00:04:31]
14. Вальс [00:02:53]
15. Господи! [00:04:20]
16. Опера [00:03:13]
17. Я войду... [00:03:34]

[spoiler="Отчёт EAC"]
Код: Выделить всё
Exact Audio Copy V0.99 prebeta 5 from 4. May 2009

EAC extraction logfile from 22. July 2009, 5:20

Макс Фадеев / Танцуй на битом стекле

Used drive: _NEC_DVD_RW_ND-3540AAdapter: 0ID: 0

Read mode: Secure
Utilize accurate stream : Yes
Defeat audio cache: Yes
Make use of C2 pointers : No

Read offset correction: 48
Overread into Lead-In and Lead-Out: No
Fill up missing offset samples with silence : Yes
Delete leading and trailing silent blocks: No
Null samples used in CRC calculations: Yes
Used interface: Native Win32 interface for Win NT & 2000
Gap handling: Appended to previous track

Used output format: User Defined Encoder
Selected bitrate: 320 kBit/s
Quality: High
Add ID3 tag: No
Command line compressor: C:Program FilesExact Audio CopyFlacflac.exe
Additional command line options : -6 -V -T "ARTIST=%a" -T "TITLE=%t" -T "ALBUM=%g" -T "DATE=%y" -T "TRACKNUMBER=%n" -T "GENRE=%m" -T "COMMENT=%e" %s -o %d

Track1

Filename C:Recovered FilesAudioМакс ФадеевМакс Фадеев - Танцуй На Битом Стекле (1998)�1 - Время диких зверей.wav

Pre-gap length0:00:02.00

Peak level 100.0 %
Track quality 100.0 %
Test CRC BCC43C69
Copy CRC BCC43C69
Accurately ripped (confidence 1)[85690356]
Copy OK

Track2

Filename C:Recovered FilesAudioМакс ФадеевМакс Фадеев - Танцуй На Битом Стекле (1998)�2 - Иди на свет.wav

Peak level 100.0 %
Track quality 100.0 %
Test CRC 157DB027
Copy CRC 157DB027
Accurately ripped (confidence 1)[02DB7B61]
Copy OK

Track3

Filename C:Recovered FilesAudioМакс ФадеевМакс Фадеев - Танцуй На Битом Стекле (1998)�3 - Кокаин.wav

Peak level 99.9 %
Track quality 100.0 %
Test CRC E58F182B
Copy CRC E58F182B
Accurately ripped (confidence 1)[50CB0E76]
Copy OK

Track4

Filename C:Recovered FilesAudioМакс ФадеевМакс Фадеев - Танцуй На Битом Стекле (1998)�4 - Иди!.wav

Peak level 95.8 %
Track quality 100.0 %
Test CRC 72B390F0
Copy CRC 72B390F0
Accurately ripped (confidence 1)[BCD6CB01]
Copy OK

Track5

Filename C:Recovered FilesAudioМакс ФадеевМакс Фадеев - Танцуй На Битом Стекле (1998)�5 - Игра без огня.wav

Peak level 92.6 %
Track quality 100.0 %
Test CRC 43459061
Copy CRC 43459061
Accurately ripped (confidence 1)[EC3EEC34]
Copy OK

Track6

Filename C:Recovered FilesAudioМакс ФадеевМакс Фадеев - Танцуй На Битом Стекле (1998)�6 - Белый дым.wav

Peak level 70.3 %
Track quality 100.0 %
Test CRC A87416E8
Copy CRC A87416E8
Accurately ripped (confidence 1)[E010A17A]
Copy OK

Track7

Filename C:Recovered FilesAudioМакс ФадеевМакс Фадеев - Танцуй На Битом Стекле (1998)�7 - Кто ты .wav

Peak level 76.1 %
Track quality 100.0 %
Test CRC 01CC2189
Copy CRC 01CC2189
Accurately ripped (confidence 1)[CCD272B4]
Copy OK

Track8

Filename C:Recovered FilesAudioМакс ФадеевМакс Фадеев - Танцуй На Битом Стекле (1998)�8 - Моей Ленке.wav

Peak level 70.1 %
Track quality 100.0 %
Test CRC 26CC7BFA
Copy CRC 26CC7BFA
Accurately ripped (confidence 1)[A97C8ACF]
Copy OK

Track9

Filename C:Recovered FilesAudioМакс ФадеевМакс Фадеев - Танцуй На Битом Стекле (1998)�9 - Колыбельная.wav

Peak level 62.1 %
Track quality 100.0 %
Test CRC 6942C445
Copy CRC 6942C445
Accurately ripped (confidence 1)[0DAEA8BD]
Copy OK

Track 10

Filename C:Recovered FilesAudioМакс ФадеевМакс Фадеев - Танцуй На Битом Стекле (1998)10 - Танцуй на битом стекле.wav

Peak level 96.5 %
Track quality 99.9 %
Test CRC 991DFF42
Copy CRC 991DFF42
Accurately ripped (confidence 1)[7C3DF369]
Copy OK

Track 11

Filename C:Recovered FilesAudioМакс ФадеевМакс Фадеев - Танцуй На Битом Стекле (1998)11 - Воскреси!.wav

Peak level 99.9 %
Track quality 99.9 %
Test CRC D81A5B7D
Copy CRC D81A5B7D
Accurately ripped (confidence 1)[F062345F]
Copy OK

Track 12

Filename C:Recovered FilesAudioМакс ФадеевМакс Фадеев - Танцуй На Битом Стекле (1998)12 - Крохотный дуэт.wav

Peak level 88.1 %
Track quality 100.0 %
Test CRC CD071EF6
Copy CRC CD071EF6
Accurately ripped (confidence 1)[44AC020E]
Copy OK

Track 13

Filename C:Recovered FilesAudioМакс ФадеевМакс Фадеев - Танцуй На Битом Стекле (1998)13 - Королева.wav

Peak level 82.0 %
Track quality 100.0 %
Test CRC 111F0659
Copy CRC 111F0659
Accurately ripped (confidence 1)[E2ED8C0B]
Copy OK

Track 14

Filename C:Recovered FilesAudioМакс ФадеевМакс Фадеев - Танцуй На Битом Стекле (1998)14 - Вальс.wav

Peak level 95.1 %
Track quality 99.9 %
Test CRC 508D6A42
Copy CRC 508D6A42
Accurately ripped (confidence 1)[C7C51132]
Copy OK

Track 15

Filename C:Recovered FilesAudioМакс ФадеевМакс Фадеев - Танцуй На Битом Стекле (1998)15 - Господи!.wav

Peak level 89.6 %
Track quality 99.9 %
Test CRC 43780343
Copy CRC 43780343
Accurately ripped (confidence 1)[72EDFF2E]
Copy OK

Track 16

Filename C:Recovered FilesAudioМакс ФадеевМакс Фадеев - Танцуй На Битом Стекле (1998)16 - Опера.wav

Peak level 78.9 %
Track quality 100.0 %
Test CRC 94174FED
Copy CRC 94174FED
Accurately ripped (confidence 1)[A1CE5896]
Copy OK

Track 17

Filename C:Recovered FilesAudioМакс ФадеевМакс Фадеев - Танцуй На Битом Стекле (1998)17 - Я войду....wav

Peak level 88.3 %
Track quality 100.0 %
Test CRC 860963FD
Copy CRC 860963FD
Accurately ripped (confidence 1)[0B14B03C]
Copy OK
All tracks accurately ripped

No errors occurred

End of status report[/spoiler]

[spoiler="06 - 1999 - Нега"]

[Для просмотра изображения необходимо включить JavaScript]
Исполнитель: Макс Фадеев
Альбом: Нега
Тип релиза: Студийная запись
Жанр: Meditative
Дата выпуска: 1999
Страна: Россия
Лейбл: J.S.P. Company / группа ДЖЕМ
Формат: FLAC (tracks)
Битрейт: 490-815 kbps
Продолжительность: 00:52:55

Треклист:
01. Восхождение [00:08:51]
02. Там, где спишь [00:04:56]
03. Когда откроешь глаза [00:05:34]
04. Поезд в небо [00:06:14]
05. Пульс птицы [00:05:16]
06. Под водой [00:02:11]
07. Одиночество [00:08:07]
08. То: что вижу [00:01:08]
09. Выход в черное [00:06:02]
10. Выход в белое [00:02:54]
11. Моей дочке [00:01:38]

[spoiler="Отчёт EAC"]
Код: Выделить всё
Exact Audio Copy V0.99 prebeta 5 from 4. May 2009

EAC extraction logfile from 2. August 2009, 1:52

Макс Фадеев / Нега

Used drive: Optiarc DVD RW AD-7200SAdapter: 0ID: 0

Read mode: Secure
Utilize accurate stream : Yes
Defeat audio cache: Yes
Make use of C2 pointers : No

Read offset correction: 48
Overread into Lead-In and Lead-Out: No
Fill up missing offset samples with silence : Yes
Delete leading and trailing silent blocks: No
Null samples used in CRC calculations: Yes
Used interface: Native Win32 interface for Win NT & 2000
Gap handling: Appended to previous track

Used output format: User Defined Encoder
Selected bitrate: 320 kBit/s
Quality: High
Add ID3 tag: No
Command line compressor: C:Program FilesExact Audio CopyFlacflac.exe
Additional command line options : -6 -V -T "ARTIST=%a" -T "TITLE=%t" -T "ALBUM=%g" -T "DATE=%y" -T "TRACKNUMBER=%n" -T "GENRE=%m" -T "COMMENT=%e" %s -o %d
Track1

Filename C:Recovered FilesAudioМакс ФадеевМакс Фадеев - Нега (1999)�1 - Восхождение.wav

Pre-gap length0:00:02.00

Peak level 100.0 %
Track quality 100.0 %
Test CRC 6024C08E
Copy CRC 6024C08E
Accurately ripped (confidence 1)[E1AF5CF7]
Copy OK

Track2

Filename C:Recovered FilesAudioМакс ФадеевМакс Фадеев - Нега (1999)�2 - Там, где спишь.wav

Peak level 79.6 %
Track quality 100.0 %
Test CRC 3DEC9F06
Copy CRC 3DEC9F06
Accurately ripped (confidence 1)[854D0CD4]
Copy OK

Track3

Filename C:Recovered FilesAudioМакс ФадеевМакс Фадеев - Нега (1999)�3 - Когда откроешь глаза.wav

Peak level 94.4 %
Track quality 100.0 %
Test CRC 54D84DD6
Copy CRC 54D84DD6
Accurately ripped (confidence 1)[47E1717A]
Copy OK

Track4

Filename C:Recovered FilesAudioМакс ФадеевМакс Фадеев - Нега (1999)�4 - Поезд в небо.wav

Peak level 86.4 %
Track quality 100.0 %
Test CRC C4FAB366
Copy CRC C4FAB366
Accurately ripped (confidence 1)[F4FCB7F8]
Copy OK

Track5

Filename C:Recovered FilesAudioМакс ФадеевМакс Фадеев - Нега (1999)�5 - Пульс птицы.wav

Peak level 95.6 %
Track quality 100.0 %
Test CRC 2327640D
Copy CRC 2327640D
Accurately ripped (confidence 1)[4EF90833]
Copy OK

Track6

Filename C:Recovered FilesAudioМакс ФадеевМакс Фадеев - Нега (1999)�6 - Под водой.wav

Peak level 20.4 %
Track quality 100.0 %
Test CRC 61992AC0
Copy CRC 61992AC0
Accurately ripped (confidence 1)[ED4A1FC9]
Copy OK

Track7

Filename C:Recovered FilesAudioМакс ФадеевМакс Фадеев - Нега (1999)�7 - Одиночество.wav

Peak level 82.1 %
Track quality 100.0 %
Test CRC 80060D11
Copy CRC 80060D11
Accurately ripped (confidence 1)[F1622183]
Copy OK

Track8

Filename C:Recovered FilesAudioМакс ФадеевМакс Фадеев - Нега (1999)�8 - То- что вижу.wav

Peak level 48.5 %
Track quality 100.0 %
Test CRC DB9F7F96
Copy CRC DB9F7F96
Accurately ripped (confidence 1)[FA2FF736]
Copy OK

Track9

Filename C:Recovered FilesAudioМакс ФадеевМакс Фадеев - Нега (1999)�9 - Выход в черное.wav

Peak level 100.0 %
Track quality 99.9 %
Test CRC BCAD4DFA
Copy CRC BCAD4DFA
Accurately ripped (confidence 1)[73579234]
Copy OK

Track 10

Filename C:Recovered FilesAudioМакс ФадеевМакс Фадеев - Нега (1999)10 - Выход в белое.wav

Peak level 97.7 %
Track quality 100.0 %
Test CRC 3002A3A9
Copy CRC 3002A3A9
Accurately ripped (confidence 1)[D6FE5C1D]
Copy OK

Track 11

Filename C:Recovered FilesAudioМакс ФадеевМакс Фадеев - Нега (1999)11 - Моей дочке.wav

Peak level 58.1 %
Track quality 99.8 %
Test CRC B3C97D8A
Copy CRC B3C97D8A
Accurately ripped (confidence 1)[CFAAD6A8]
Copy OK
All tracks accurately ripped

No errors occurred

End of status report[/spoiler]

[spoiler="07 - 2001 - The Red One: Triumph"]

[Для просмотра изображения необходимо включить JavaScript]
Исполнитель: Various Artists (VA)
Альбом: The Red One. (Triumph Soundtrack)
Тип релиза: Студийная запись
Жанр: New Age
Дата выпуска: 2001
Страна: Россия
Лейбл: Real Records
Формат: FLAC (tracks)
Битрейт: 819-1071 kbps
Продолжительность: 00:52:40

Треклист:
01. Even (Oil Plant) [00:05:14]
02. Кукла [00:03:31]
03. Погнали [00:02:32]
04. От Винта [00:04:19]
05. Алая Талая (Remix Triplex) [00:04:35]
06. Война [00:05:22]
07. Я Выкрашу Тебя В Свой Цвет [00:04:03]
08. Я Не Верю Твоим Глазам (Original) [00:03:31]
09. Молекула [00:03:53]
10. Алая Талая (Original) [00:03:34]
11. Я Не Верю Твоим Глазам (Remix DJ KoK) [00:04:14]
12. Я Смотрела Вперед [00:03:43]
13. Лети За Мной [00:04:03]

[spoiler="Отчёт EAC"]
Код: Выделить всё
Exact Audio Copy V0.99 prebeta 5 from 4. May 2009

EAC extraction logfile from 2. August 2009, 3:26

Various Artists / The Red One. (Triumph Soundtrack)

Used drive: Optiarc DVD RW AD-7200SAdapter: 0ID: 0

Read mode: Secure
Utilize accurate stream : Yes
Defeat audio cache: Yes
Make use of C2 pointers : No

Read offset correction: 48
Overread into Lead-In and Lead-Out: No
Fill up missing offset samples with silence : Yes
Delete leading and trailing silent blocks: No
Null samples used in CRC calculations: Yes
Used interface: Native Win32 interface for Win NT & 2000
Gap handling: Appended to previous track

Used output format: User Defined Encoder
Selected bitrate: 320 kBit/s
Quality: High
Add ID3 tag: No
Command line compressor: C:Program FilesExact Audio CopyFlacflac.exe
Additional command line options : -6 -V -T "ARTIST=%a" -T "TITLE=%t" -T "ALBUM=%g" -T "DATE=%y" -T "TRACKNUMBER=%n" -T "GENRE=%m" -T "COMMENT=%e" %s -o %d

Track1

Filename C:Recovered FilesAudioМакс ФадеевМакс Фадеев - The Red One - Triumph (2001)�1 - Oil Plant - Even (Oil Plant).wav

Pre-gap length0:00:02.00

Peak level 99.9 %
Track quality 100.0 %
Test CRC BF976D6C
Copy CRC BF976D6C
Track not present in AccurateRip database
Copy OK

Track2

Filename C:Recovered FilesAudioМакс ФадеевМакс Фадеев - The Red One - Triumph (2001)�2 - Максим Фадеев - Кукла.wav

Peak level 99.9 %
Track quality 100.0 %
Test CRC 59919570
Copy CRC 59919570
Track not present in AccurateRip database
Copy OK

Track3

Filename C:Recovered FilesAudioМакс ФадеевМакс Фадеев - The Red One - Triumph (2001)�3 - Максим Фадеев - Погнали.wav

Peak level 99.9 %
Track quality 100.0 %
Test CRC 10A8A8C3
Copy CRC 10A8A8C3
Track not present in AccurateRip database
Copy OK

Track4

Filename C:Recovered FilesAudioМакс ФадеевМакс Фадеев - The Red One - Triumph (2001)�4 - Максим Фадеев - От Винта.wav

Peak level 99.9 %
Track quality 100.0 %
Test CRC F0A781D8
Copy CRC F0A781D8
Track not present in AccurateRip database
Copy OK

Track5

Filename C:Recovered FilesAudioМакс ФадеевМакс Фадеев - The Red One - Triumph (2001)�5 - Total - Алая Талая (Remix Triplex).wav

Peak level 99.9 %
Track quality 100.0 %
Test CRC 3E9BC53F
Copy CRC 3E9BC53F
Track not present in AccurateRip database
Copy OK

Track6

Filename C:Recovered FilesAudioМакс ФадеевМакс Фадеев - The Red One - Triumph (2001)�6 - Максим Фадеев - Война.wav

Peak level 99.9 %
Track quality 99.9 %
Test CRC 4F9AACE0
Copy CRC 4F9AACE0
Track not present in AccurateRip database
Copy OK

Track7

Filename C:Recovered FilesAudioМакс ФадеевМакс Фадеев - The Red One - Triumph (2001)�7 - Максим Фадеев - Я Выкрашу Тебя В Свой Цвет.wav

Peak level 99.9 %
Track quality 100.0 %
Test CRC 5E20A186
Copy CRC 5E20A186
Track not present in AccurateRip database
Copy OK

Track8

Filename C:Recovered FilesAudioМакс ФадеевМакс Фадеев - The Red One - Triumph (2001)�8 - Максим Фадеев - Я Не Верю Твоим Глазам (Original).wav

Peak level 99.9 %
Track quality 100.0 %
Test CRC F9C1B1B8
Copy CRC F9C1B1B8
Track not present in AccurateRip database
Copy OK

Track9

Filename C:Recovered FilesAudioМакс ФадеевМакс Фадеев - The Red One - Triumph (2001)�9 - Максим Фадеев - Молекула.wav

Peak level 100.0 %
Track quality 100.0 %
Test CRC 2666491D
Copy CRC 2666491D
Track not present in AccurateRip database
Copy OK

Track 10

Filename C:Recovered FilesAudioМакс ФадеевМакс Фадеев - The Red One - Triumph (2001)10 - Total - Алая Талая (Original).wav

Peak level 100.0 %
Track quality 100.0 %
Test CRC B6D41194
Copy CRC B6D41194
Track not present in AccurateRip database
Copy OK

Track 11

Filename C:Recovered FilesAudioМакс ФадеевМакс Фадеев - The Red One - Triumph (2001)11 - Максим Фадеев - Я Не Верю Твоим Глазам (Remix DJ KoK).wav

Peak level 100.0 %
Track quality 100.0 %
Test CRC 8B6C75DF
Copy CRC 8B6C75DF
Track not present in AccurateRip database
Copy OK

Track 12

Filename C:Recovered FilesAudioМакс ФадеевМакс Фадеев - The Red One - Triumph (2001)12 - Total - Я Смотрела Вперед.wav

Peak level 100.0 %
Track quality 100.0 %
Test CRC BB97783A
Copy CRC BB97783A
Track not present in AccurateRip database
Copy OK

Track 13

Filename C:Recovered FilesAudioМакс ФадеевМакс Фадеев - The Red One - Triumph (2001)13 - Максим Фадеев - Лети За Мной.wav

Peak level 99.9 %
Track quality 100.0 %
Test CRC EC169CE6
Copy CRC EC169CE6
Track not present in AccurateRip database
Copy OK
None of the tracks are present in the AccurateRip database

No errors occurred

End of status report[/spoiler]

[spoiler="08 - 2001 - Звездная Коллекция"]

[Для просмотра изображения необходимо включить JavaScript]
Исполнитель: Макс Фадеев
Альбом: Звездная Коллекция
Тип релиза: Студийная запись
Жанр: Newage/Ethnic
Дата выпуска: 2001
Страна: Россия
Формат: FLAC (tracks)
Битрейт: 496-941 kbps
Продолжительность: 01:07:14

Треклист:
01. Беги по небу [00:04:46]
02. Сестричка [00:03:36]
03. В области сердца [00:04:01]
04. Танцуй на битом стекле [00:02:55]
05. Господи! [00:04:14]
06. Кусай свои губы [00:03:24]
07. Акула [00:03:53]
08. Кто ты? [00:04:41]
09. Под водой [00:02:04]
10. Выход в белое [00:02:54]
11. Тихо несет вода [00:04:55]
12. Иди на свет [00:05:28]
13. Бабочки [00:03:38]
14. Ножницы [00:03:37]
15. Кокаин [00:03:17]
16. Игра без огня (кошка) [00:04:31]
17. Моей дочке [00:01:36]
18. Колыбельная [00:03:35]

[spoiler="Отчёт EAC"]
Код: Выделить всё
Exact Audio Copy V0.99 prebeta 5 from 4. May 2009

EAC extraction logfile from 2. August 2009, 11:57

Макс Фадеев / Звездная Коллекция

Used drive: Optiarc DVD RW AD-7200SAdapter: 0ID: 0

Read mode: Secure
Utilize accurate stream : Yes
Defeat audio cache: Yes
Make use of C2 pointers : No

Read offset correction: 48
Overread into Lead-In and Lead-Out: No
Fill up missing offset samples with silence : Yes
Delete leading and trailing silent blocks: No
Null samples used in CRC calculations: Yes
Used interface: Native Win32 interface for Win NT & 2000
Gap handling: Appended to previous track

Used output format: User Defined Encoder
Selected bitrate: 320 kBit/s
Quality: High
Add ID3 tag: No
Command line compressor: C:Program FilesExact Audio CopyFlacflac.exe
Additional command line options : -6 -V -T "ARTIST=%a" -T "TITLE=%t" -T "ALBUM=%g" -T "DATE=%y" -T "TRACKNUMBER=%n" -T "GENRE=%m" -T "COMMENT=%e" %s -o %d

Track1

Filename C:Recovered FilesAudioМакс ФадеевМакс Фадеев - Звездная Коллекция (2001)�1 - Беги по небу.wav

Pre-gap length0:00:02.00

Peak level 85.9 %
Track quality 100.0 %
Test CRC 0980EBF2
Copy CRC 0980EBF2
Track not present in AccurateRip database
Copy OK

Track2

Filename C:Recovered FilesAudioМакс ФадеевМакс Фадеев - Звездная Коллекция (2001)�2 - Сестричка.wav

Peak level 94.3 %
Track quality 100.0 %
Test CRC FFEE90B5
Copy CRC FFEE90B5
Track not present in AccurateRip database
Copy OK

Track3

Filename C:Recovered FilesAudioМакс ФадеевМакс Фадеев - Звездная Коллекция (2001)�3 - В области сердца.wav

Peak level 94.4 %
Track quality 100.0 %
Test CRC F7609FB1
Copy CRC F7609FB1
Track not present in AccurateRip database
Copy OK

Track4

Filename C:Recovered FilesAudioМакс ФадеевМакс Фадеев - Звездная Коллекция (2001)�4 - Танцуй на битом стекле.wav

Peak level 96.5 %
Track quality 100.0 %
Test CRC 9C7F9EDD
Copy CRC 9C7F9EDD
Track not present in AccurateRip database
Copy OK

Track5

Filename C:Recovered FilesAudioМакс ФадеевМакс Фадеев - Звездная Коллекция (2001)�5 - Господи!.wav

Peak level 89.6 %
Track quality 100.0 %
Test CRC DF7CB2EB
Copy CRC DF7CB2EB
Track not present in AccurateRip database
Copy OK

Track6

Filename C:Recovered FilesAudioМакс ФадеевМакс Фадеев - Звездная Коллекция (2001)�6 - Кусай свои губы.wav

Peak level 95.1 %
Track quality 100.0 %
Test CRC 73976C8D
Copy CRC 73976C8D
Track not present in AccurateRip database
Copy OK

Track7

Filename C:Recovered FilesAudioМакс ФадеевМакс Фадеев - Звездная Коллекция (2001)�7 - Акула.wav

Peak level 94.4 %
Track quality 99.9 %
Test CRC F83B16FD
Copy CRC F83B16FD
Track not present in AccurateRip database
Copy OK

Track8

Filename C:Recovered FilesAudioМакс ФадеевМакс Фадеев - Звездная Коллекция (2001)�8 - Кто ты .wav

Peak level 76.1 %
Track quality 99.9 %
Test CRC 8E1E31E5
Copy CRC 8E1E31E5
Track not present in AccurateRip database
Copy OK

Track9

Filename C:Recovered FilesAudioМакс ФадеевМакс Фадеев - Звездная Коллекция (2001)�9 - Под водой.wav

Peak level 20.4 %
Track quality 99.9 %
Test CRC DBDDA057
Copy CRC DBDDA057
Track not present in AccurateRip database
Copy OK

Track 10

Filename C:Recovered FilesAudioМакс ФадеевМакс Фадеев - Звездная Коллекция (2001)10 - Выход в белое.wav

Peak level 97.7 %
Track quality 100.0 %
Test CRC A32701C8
Copy CRC A32701C8
Track not present in AccurateRip database
Copy OK

Track 11

Filename C:Recovered FilesAudioМакс ФадеевМакс Фадеев - Звездная Коллекция (2001)11 - Тихо несет вода.wav

Peak level 94.3 %
Track quality 100.0 %
Test CRC 086565CA
Copy CRC 086565CA
Track not present in AccurateRip database
Copy OK

Track 12

Filename C:Recovered FilesAudioМакс ФадеевМакс Фадеев - Звездная Коллекция (2001)12 - Иди на свет.wav

Peak level 100.0 %
Track quality 99.9 %
Test CRC C262634B
Copy CRC C262634B
Track not present in AccurateRip database
Copy OK

Track 13

Filename C:Recovered FilesAudioМакс ФадеевМакс Фадеев - Звездная Коллекция (2001)13 - Бабочки.wav

Peak level 94.3 %
Track quality 100.0 %
Test CRC D576AE4C
Copy CRC D576AE4C
Track not present in AccurateRip database
Copy OK

Track 14

Filename C:Recovered FilesAudioМакс ФадеевМакс Фадеев - Звездная Коллекция (2001)14 - Ножницы.wav

Peak level 94.4 %
Track quality 100.0 %
Test CRC 15AEE87F
Copy CRC 15AEE87F
Track not present in AccurateRip database
Copy OK

Track 15

Filename C:Recovered FilesAudioМакс ФадеевМакс Фадеев - Звездная Коллекция (2001)15 - Кокаин.wav

Peak level 99.9 %
Track quality 100.0 %
Test CRC 6EB6651D
Copy CRC 6EB6651D
Track not present in AccurateRip database
Copy OK

Track 16

Filename C:Recovered FilesAudioМакс ФадеевМакс Фадеев - Звездная Коллекция (2001)16 - Игра без огня (кошка).wav

Peak level 89.9 %
Track quality 100.0 %
Test CRC 5CA46A7B
Copy CRC 5CA46A7B
Track not present in AccurateRip database
Copy OK

Track 17

Filename C:Recovered FilesAudioМакс ФадеевМакс Фадеев - Звездная Коллекция (2001)17 - Моей дочке.wav

Peak level 58.1 %
Track quality 100.0 %
Test CRC 8FE581AA
Copy CRC 8FE581AA
Track not present in AccurateRip database
Copy OK

Track 18

Filename C:Recovered FilesAudioМакс ФадеевМакс Фадеев - Звездная Коллекция (2001)18 - Колыбельная.wav

Peak level 62.1 %
Track quality 100.0 %
Test CRC 217F7486
Copy CRC 217F7486
Track not present in AccurateRip database
Copy OK

No errors occurred

End of status report[/spoiler]

[Для просмотра изображения необходимо включить JavaScript]
[Для просмотра изображения необходимо включить JavaScript]

Автор

Аватара пользователя
Ded
 
Раздал: 598.03 МБ
Скачал: 1.68 ГБ
Ратио: 0.348
Сообщения: 77
Зарегистрирован: 02 апр 2012, 16:25
Репутация: 11


Торрент

Автор: Ded
Добавлен: 17 июн 2012, 04:56
Размер: 2.1 ГБ
Размер: 2 255 571 799 байт
Сидеров: 717
Личеров: 194
Скачали: 79
Здоровье: 100%
Раздающих: 100%
Скорость скачивания: 0 байт/сек
Скорость раздачи: 0 байт/сек
Последний сидер: 5 часов 3 минуты 44 секунды назад
Последний личер: 13 часов 48 минут 11 секунд назад
Приватный: Нет (DHT включён)
Мусор Скачать торрент
Скачать торрент
[ Размер 22.74 КБ / Просмотров 456 ]


Вернуться в Мусор

Кто сейчас на конференции

Сейчас этот форум просматривают: нет зарегистрированных пользователей и гости: 1

Привет!

Привет, меня зовут Няша, я что-то типа ангела хранителя RipFunClub'а. Так как админ меня не дописал, я еще глупенькая, и ни чего не умею и между прочим мне за это очень стыдно =( К тому же мой вид меня смущает ='(

А пока я могу только предложить зарегистрироваться или залогинеться =)