Главная » ТрекерМузыкаРок музыка / Rock MusicЗарубежный РокAOR, Melodic, Classic & Hard Rock
Версия для печати
Бессовестная реклама: на этой странице пока нет =)

Sixx: A.M. - Дискография (2007 - 2011), FLAC (image+.cue), lossless

Сообщение

Sixx: A.M. - Дискография (2007 - 2011), FLAC (image+.cue), lossless

Сообщение RockMusic » 25 мар 2012, 14:49

Sixx: A.M. - The Heroin Diaries Soundtrack

Жанр: Hard Rock
Год выпуска диска: 2007
Производитель диска: USA
Аудио кодек: FLAC
Тип рипа: image+.cue
Битрейт аудио: lossless
Продолжительность: 00.51.02.35
Источник: собственный рип
Доп. информация:
Sixx: A.M. - это рок-группа, основанная Никки Сикксом, басистом и основателем "Motley Crue". В основу альбома The Heroin Diaries положен сюжет книги Сиккса с таким же названием. Книга является автобиографичной и рассказывает об одном годе из жизни музыканта.
Все события альбома разворачиваются вокруг случая, когда в 1987 Сиккс пережил клиническую смерть после передозировки, но был спасен врачами.
Сиккс объявил, что 25% от всех доходов намерен отдать в организацию Covenant House California, которая помогает молодежи избавиться от влияния улицы и начать новую жизнь.
1. X-Mas
2. Van Nuys
3. Life Is Beautiful
4. Pray For Me
5. Tommorrow
6. Accidents Can Happen
7. Intermission
8. Dead Man's Ballet
9. Heart Failure
10. Girl With Golden Eyes
11. Courtesy Call
12. Permission
13. Life After Death
EAC
Exact Audio Copy V0.99 prebeta 4 from 23. January 2008
Отчёт EAC об извлечении, выполненном 4. июня 2009, 23:24
Sixx:A.M. / The Heroin Diaries
Дисковод: Optiarc DVD RW AD-7203S Adapter: 2 ID: 0
Режим чтения : Достоверность
Использование точного потока : Да
Отключение кэша аудио : Да
Использование указателей C2 : Нет
Коррекция смещения при чтении : 48
Способность читать области Lead-in и Lead-out : Нет
Заполнение пропущенных сэмплов тишиной : Да
Удаление блоков с тишиной в начале и конце : Нет
При вычислениях CRC использовались нулевые сэмплы : Да
Интерфейс : Установленный внешний ASPI-интерфейс
Выходной формат : Внутренние WAV-операции
Формат сэмплов : 44.100 Гц; 16 бит; стерео
TOC извлечённого CD
Трек | Старт | Длительность | Начальный сектор | Конечный сектор
---------------------------------------------------------------------
1 | 0:00.00 | 2:09.40 | 0 | 9714
2 | 2:09.40 | 3:52.23 | 9715 | 27137
3 | 6:01.63 | 3:35.01 | 27138 | 43263
4 | 9:36.64 | 4:13.44 | 43264 | 62282
5 | 13:50.33 | 4:05.27 | 62283 | 80684
6 | 17:55.60 | 4:07.00 | 80685 | 99209
7 | 22:02.60 | 2:20.10 | 99210 | 109719
8 | 24:22.70 | 5:25.35 | 109720 | 134129
9 | 29:48.30 | 4:57.74 | 134130 | 156478
10 | 34:46.29 | 4:20.28 | 156479 | 176006
11 | 39:06.57 | 4:41.03 | 176007 | 197084
12 | 43:47.60 | 4:14.34 | 197085 | 216168
13 | 48:02.19 | 3:00.16 | 216169 | 229684
14 | 53:34.35 | 7:03.18 | 241085 | 272827
Характеристики диапазона извлечения и сообщения об ошибках
Выбранный диапазон
Имя файла E:\Documents and Settings\Admin\Мои документы\Мои видеозаписи\SixxAM\Sixx A.M. - The Heroin Diaries.wav
Пиковый уровень 100.0 %
Качество диапазона 99.9 %
CRC копии FA08F378
Копирование... OK
Ошибок не произошло
AccurateRip: сводка
Трек 1 точное извлечение (доверие 26) [F803739D]
Трек 2 точное извлечение (доверие 26) [EC6032DA]
Трек 3 точное извлечение (доверие 26) [C5B377E2]
Трек 4 точное извлечение (доверие 26) [01E00533]
Трек 5 точное извлечение (доверие 26) [7FA43C98]
Трек 6 точное извлечение (доверие 26) [C0164593]
Трек 7 точное извлечение (доверие 26) [51C52CE8]
Трек 8 точное извлечение (доверие 25) [F47FAB2F]
Трек 9 точное извлечение (доверие 26) [045D2B15]
Трек 10 точное извлечение (доверие 26) [86B88D58]
Трек 11 точное извлечение (доверие 26) [FA6504FE]
Трек 12 точное извлечение (доверие 26) [61566FB7]
Трек 13 точное извлечение (доверие 26) [D05BA778]
Все треки извлечены точно
Конец отчёта
CUE
REM GENRE Alternative
REM DATE 2007
REM DISCID C50E350E
REM COMMENT "ExactAudioCopy v0.99pb4"
PERFORMER "Sixx:A.M."
TITLE "The Heroin Diaries"
FILE "Sixx A.M. - The Heroin Diaries.flac" WAVE
TRACK 01 AUDIO
TITLE "Track01"
PERFORMER "Sixx:A.M."
INDEX 01 00:00:00
TRACK 02 AUDIO
TITLE "Track02"
PERFORMER "Sixx:A.M."
INDEX 01 02:09:40
TRACK 03 AUDIO
TITLE "Track03"
PERFORMER "Sixx:A.M."
INDEX 01 06:01:63
TRACK 04 AUDIO
TITLE "Track04"
PERFORMER "Sixx:A.M."
INDEX 01 09:36:64
TRACK 05 AUDIO
TITLE "Track05"
PERFORMER "Sixx:A.M."
INDEX 00 13:50:06
INDEX 01 13:50:33
TRACK 06 AUDIO
TITLE "Track06"
PERFORMER "Sixx:A.M."
INDEX 01 17:55:60
TRACK 07 AUDIO
TITLE "Track07"
PERFORMER "Sixx:A.M."
INDEX 00 22:02:44
INDEX 01 22:02:60
TRACK 08 AUDIO
TITLE "Track08"
PERFORMER "Sixx:A.M."
INDEX 01 24:22:70
TRACK 09 AUDIO
TITLE "Track09"
PERFORMER "Sixx:A.M."
INDEX 00 29:48:01
INDEX 01 29:48:30
TRACK 10 AUDIO
TITLE "Track10"
PERFORMER "Sixx:A.M."
INDEX 00 34:46:05
INDEX 01 34:46:29
TRACK 11 AUDIO
TITLE "Track11"
PERFORMER "Sixx:A.M."
INDEX 01 39:06:57
TRACK 12 AUDIO
TITLE "Track12"
PERFORMER "Sixx:A.M."
INDEX 01 43:47:60
TRACK 13 AUDIO
TITLE "Track13"
PERFORMER "Sixx:A.M."
INDEX 00 48:00:62
INDEX 01 48:02:19

Sixx A.M. - This Is Gonna Hurt
Жанр: Hard Rock
Год выпуска диска: 2011
Производитель диска: USA
Аудио кодек: FLAC
Тип рипа: tracks+.cue
Битрейт аудио: lossless
Продолжительность: 00:48:54
Наличие сканов в содержимом раздачи: есть
Источник: mole.ru


01. This Is Gonna Hurt
02. Lies Of The Beautiful People
03. Are You With Me
04. Live Forever
05. Sure Feels Right
06. Deadlihood
07. Smile
08. Help Is On The Way
09. Oh My God
10. Goodbye My Friends
11. Skin
EAC
Exact Audio Copy V0.99 prebeta 5 from 4. May 2009
EAC extraction logfile from 5. May 2011, 20:03
Sixx: A.M. / This Is Gonna Hurt
Used drive : ATAPI iHAS422 8 Adapter: 3 ID: 1
Read mode : Secure
Utilize accurate stream : Yes
Defeat audio cache : Yes
Make use of C2 pointers : No
Read offset correction : 6
Overread into Lead-In and Lead-Out : No
Fill up missing offset samples with silence : Yes
Delete leading and trailing silent blocks : No
Null samples used in CRC calculations : Yes
Used interface : Installed external ASPI interface
Gap handling : Appended to previous track
Used output format : User Defined Encoder
Selected bitrate : 768 kBit/s
Quality : High
Add ID3 tag : No
Command line compressor : C:\Program Files\FLAC\flac.exe
Additional command line options : -8 -V -T "ARTIST=%a" -T "TITLE=%t" -T "ALBUM=%g" -T "DATE=%y" -T "TRACKNUMBER=%n" -T "TOTALTRACKS=%x" -T "GENRE=%m" -T "ALBUM ARTIST=%v" -T "ALBUMARTIST=%v" -T "COMMENT=EAC V0.99 prebeta 5, Secure Mode, Test & Copy, Accurat
TOC of the extracted CD
Track | Start | Length | Start sector | End sector
---------------------------------------------------------
1 | 0:00.00 | 3:56.22 | 0 | 17721
2 | 3:56.22 | 3:58.27 | 17722 | 35598
3 | 7:54.49 | 4:02.53 | 35599 | 53801
4 | 11:57.27 | 4:55.42 | 53802 | 75968
5 | 16:52.69 | 4:09.44 | 75969 | 94687
6 | 21:02.38 | 3:15.39 | 94688 | 109351
7 | 24:18.02 | 5:22.23 | 109352 | 133524
8 | 29:40.25 | 4:18.53 | 133525 | 152927
9 | 33:59.03 | 5:35.24 | 152928 | 178076
10 | 39:34.27 | 5:57.03 | 178077 | 204854
11 | 45:31.30 | 3:22.24 | 204855 | 220028
Track 1
Filename C:\torrents\shared\data\Sixx-A.M. - This Is Gonna Hurt (2011) [FLAC] {Eleven Seven Music ESM 860}\01 - This Is Gonna Hurt.wav
Pre-gap length 0:00:02.00
Peak level 97.0 %
Track quality 100.0 %
Test CRC B2C2B85A
Copy CRC B2C2B85A
Track not present in AccurateRip database
Copy OK
Track 2
Filename C:\torrents\shared\data\Sixx-A.M. - This Is Gonna Hurt (2011) [FLAC] {Eleven Seven Music ESM 860}\02 - Lies Of The Beautiful People.wav
Pre-gap length 0:00:00.33
Peak level 97.7 %
Track quality 100.0 %
Test CRC EB5A545A
Copy CRC EB5A545A
Track not present in AccurateRip database
Copy OK
Track 3
Filename C:\torrents\shared\data\Sixx-A.M. - This Is Gonna Hurt (2011) [FLAC] {Eleven Seven Music ESM 860}\03 - Are You With Me.wav
Pre-gap length 0:00:00.18
Peak level 97.7 %
Track quality 100.0 %
Test CRC EFBC66B9
Copy CRC EFBC66B9
Track not present in AccurateRip database
Copy OK
Track 4
Filename C:\torrents\shared\data\Sixx-A.M. - This Is Gonna Hurt (2011) [FLAC] {Eleven Seven Music ESM 860}\04 - Live Forever.wav
Pre-gap length 0:00:00.21
Peak level 97.7 %
Track quality 100.0 %
Test CRC 583E990D
Copy CRC 583E990D
Track not present in AccurateRip database
Copy OK
Track 5
Filename C:\torrents\shared\data\Sixx-A.M. - This Is Gonna Hurt (2011) [FLAC] {Eleven Seven Music ESM 860}\05 - Sure Feels Right.wav
Pre-gap length 0:00:00.94
Peak level 92.2 %
Track quality 100.0 %
Test CRC 513A0C47
Copy CRC 513A0C47
Track not present in AccurateRip database
Copy OK
Track 6
Filename C:\torrents\shared\data\Sixx-A.M. - This Is Gonna Hurt (2011) [FLAC] {Eleven Seven Music ESM 860}\06 - Deadlihood.wav
Pre-gap length 0:00:00.32
Peak level 97.7 %
Track quality 100.0 %
Test CRC 92974C80
Copy CRC 92974C80
Track not present in AccurateRip database
Copy OK
Track 7
Filename C:\torrents\shared\data\Sixx-A.M. - This Is Gonna Hurt (2011) [FLAC] {Eleven Seven Music ESM 860}\07 - Smile.wav
Pre-gap length 0:00:02.26
Peak level 97.7 %
Track quality 100.0 %
Test CRC 7C7A1691
Copy CRC 7C7A1691
Track not present in AccurateRip database
Copy OK
Track 8
Filename C:\torrents\shared\data\Sixx-A.M. - This Is Gonna Hurt (2011) [FLAC] {Eleven Seven Music ESM 860}\08 - Help Is On The Way.wav
Pre-gap length 0:00:00.90
Peak level 97.7 %
Track quality 100.0 %
Test CRC 69FE3E80
Copy CRC 69FE3E80
Track not present in AccurateRip database
Copy OK
Track 9
Filename C:\torrents\shared\data\Sixx-A.M. - This Is Gonna Hurt (2011) [FLAC] {Eleven Seven Music ESM 860}\09 - Oh My God.wav
Pre-gap length 0:00:00.82
Peak level 97.7 %
Track quality 100.0 %
Test CRC C3B0FAEF
Copy CRC C3B0FAEF
Track not present in AccurateRip database
Copy OK
Track 10
Filename C:\torrents\shared\data\Sixx-A.M. - This Is Gonna Hurt (2011) [FLAC] {Eleven Seven Music ESM 860}\10 - Goodbye My Friends.wav
Pre-gap length 0:00:00.34
Peak level 95.8 %
Track quality 100.0 %
Test CRC 588E4218
Copy CRC 588E4218
Track not present in AccurateRip database
Copy OK
Track 11
Filename C:\torrents\shared\data\Sixx-A.M. - This Is Gonna Hurt (2011) [FLAC] {Eleven Seven Music ESM 860}\11 - Skin.wav
Pre-gap length 0:00:00.61
Peak level 96.0 %
Track quality 100.0 %
Test CRC 43CE09AC
Copy CRC 43CE09AC
Track not present in AccurateRip database
Copy OK
None of the tracks are present in the AccurateRip database
No errors occurred
End of status report
CUE
REM GENRE "Hard Rock"
REM DATE 2011
REM DISCID 890B750B
REM COMMENT "ExactAudioCopy v0.99pb5"
PERFORMER "Sixx: A.M. "
TITLE "This Is Gonna Hurt"
FILE "01 - This Is Gonna Hurt.wav" WAVE
TRACK 01 AUDIO
TITLE "This Is Gonna Hurt"
PERFORMER "Sixx: A.M. "
INDEX 01 00:00:00
TRACK 02 AUDIO
TITLE "Lies Of The Beautiful People"
PERFORMER "Sixx: A.M. "
INDEX 00 03:55:72
FILE "02 - Lies Of The Beautiful People.wav" WAVE
INDEX 01 00:00:00
TRACK 03 AUDIO
TITLE "Are You With Me"
PERFORMER "Sixx: A.M. "
INDEX 00 03:58:13
FILE "03 - Are You With Me.wav" WAVE
INDEX 01 00:00:00
TRACK 04 AUDIO
TITLE "Live Forever"
PERFORMER "Sixx: A.M. "
INDEX 00 04:02:37
FILE "04 - Live Forever.wav" WAVE
INDEX 01 00:00:00
TRACK 05 AUDIO
TITLE "Sure Feels Right"
PERFORMER "Sixx: A.M. "
INDEX 00 04:54:46
FILE "05 - Sure Feels Right.wav" WAVE
INDEX 01 00:00:00
TRACK 06 AUDIO
TITLE "Deadlihood"
PERFORMER "Sixx: A.M. "
INDEX 00 04:09:20
FILE "06 - Deadlihood.wav" WAVE
INDEX 01 00:00:00
TRACK 07 AUDIO
TITLE "Smile"
PERFORMER "Sixx: A.M. "
INDEX 00 03:13:19
FILE "07 - Smile.wav" WAVE
INDEX 01 00:00:00
TRACK 08 AUDIO
TITLE "Help Is On The Way"
PERFORMER "Sixx: A.M. "
INDEX 00 05:21:30
FILE "08 - Help Is On The Way.wav" WAVE
INDEX 01 00:00:00
TRACK 09 AUDIO
TITLE "Oh My God"
PERFORMER "Sixx: A.M. "
INDEX 00 04:17:66
FILE "09 - Oh My God.wav" WAVE
INDEX 01 00:00:00
TRACK 10 AUDIO
TITLE "Goodbye My Friends"
PERFORMER "Sixx: A.M. "
INDEX 00 05:34:73
FILE "10 - Goodbye My Friends.wav" WAVE
INDEX 01 00:00:00
TRACK 11 AUDIO
TITLE "Skin"
PERFORMER "Sixx: A.M. "
INDEX 00 05:56:32
FILE "11 - Skin.wav" WAVE
INDEX 01 00:00:00

Постеры

Автор

Аватара пользователя
RockMusic
SiLeNcE
SiLeNcE
 
Раздал: 5.54 ТБ
Скачал: 1.18 ТБ
Ратио: 4.688
Сообщения: 4726
Зарегистрирован: 21 окт 2011, 17:31
Репутация: 40
Откуда: Антильские о-ва (Нидерланды) Амстердам


Торрент

Автор: RockMusic
Добавлен: 25 мар 2012, 14:49
Размер: 706.34 МБ
Размер: 740 648 017 байт
Сидеров: 196
Личеров: 34
Скачали: 33
Здоровье: 100%
Раздающих: 100%
Статус: Проверен
Изменил: RockMusic (25 мар 2012, 14:58)
Скорость скачивания: 0 байт/сек
Скорость раздачи: 0 байт/сек
Последний сидер: 3 часа 32 минуты 51 секунду назад
Последний личер: 19 дней 6 часов 49 минут 22 секунды назад
Приватный: Нет (DHT включён)
AOR, Melodic, Classic & Hard Rock Скачать торрент
Скачать торрент
[ Размер 17.01 КБ / Просмотров 179 ]


Вернуться в AOR, Melodic, Classic & Hard Rock

Кто сейчас на конференции

Сейчас этот форум просматривают: нет зарегистрированных пользователей и гости: 1

Привет!

Привет, меня зовут Няша, я что-то типа ангела хранителя RipFunClub'а. Так как админ меня не дописал, я еще глупенькая, и ни чего не умею и между прочим мне за это очень стыдно =( К тому же мой вид меня смущает ='(

А пока я могу только предложить зарегистрироваться или залогинеться =)