Главная » ТрекерМузыкаРок музыка / Rock MusicЗарубежный РокAOR, Melodic, Classic & Hard Rock
Версия для печати
Бессовестная реклама: на этой странице пока нет =)

Beautiful Beast - California Suntan - 2012, APE (image+.cue), lossless

Сообщение

Beautiful Beast - California Suntan - 2012, APE (image+.cue), lossless

Сообщение RockMusic » 20 сен 2012, 15:30

Beautiful Beast ~ California Suntan
[Для просмотра изображения необходимо включить JavaScript]
Жанр: Hair Rock / Melodic Hard Rock / AOR
Страна-производитель диска: Germany
Год издания: 2012
Издатель (лейбл): G.T.O.Entertainment
Номер по каталогу: CD 1012
Страна: USA
Аудиокодек: APE (*.ape)
Тип рипа: image+.cue
Битрейт аудио: lossless
Продолжительность: 46:50
Источник (релизер): Собственный рип с оригинального диска
Наличие сканов в содержимом раздачи: да

Треклист:
01.Wet Wild Willing
02.Dance Little Sister
03.Rockschool
04.Cry Cry Cry
05.You Better Love Me
06.Fair Weather Friend
07.Addiction To The Friction
08.Wet Hair In A Waterride
09.Friday To Sunday
10.Something In The Air
11.Gimme Just One Night (Bonus Track)
Лог создания рипа
Код: Выделить всё
Exact Audio Copy V0.99 prebeta 5 from 4. May 2009
EAC extraction logfile from 12. August 2012, 7:56
Beautiful Beast / California Suntan
Used drive: HL-DT-STDVDRAM GH24LS70Adapter: 1ID: 1
Read mode: Secure
Utilize accurate stream : Yes
Defeat audio cache: Yes
Make use of C2 pointers : No
Read offset correction: 667
Overread into Lead-In and Lead-Out: No
Fill up missing offset samples with silence : Yes
Delete leading and trailing silent blocks: No
Null samples used in CRC calculations: Yes
Used interface: Installed external ASPI interface
Used output format : Internal WAV Routines
Sample format: 44.100 Hz; 16 Bit; Stereo
TOC of the extracted CD
Track |Start|Length| Start sector | End sector
---------------------------------------------------------
1|0:00.00 |4:20.22 |0|19521
2|4:20.22 |3:42.23 |19522|36194
3|8:02.45 |3:25.54 |36195|51623
4| 11:28.24 |4:22.21 |51624|71294
5| 15:50.45 |3:39.18 |71295|87737
6| 19:29.63 |4:34.48 |87738|108335
7| 24:04.36 |5:21.18 |108336|132428
8| 29:25.54 |4:49.69 |132429|154172
9| 34:15.48 |3:46.08 |154173|171130
10| 38:01.56 |4:50.06 |171131|192886
11| 42:51.62 |3:58.46 |192887|210782
Range status and errors
Selected range
Filename E:\Beautiful Beast - California Suntan (2012)\California Suntan.wav
Peak level 100.0 %
Range quality 100.0 %
Copy CRC 2F8ED540
Copy OK
No errors occurred
End of status report
Состав
Julian Angel - Lead Vocals, Lead Guitars
Frank McDouglas - Bass, Keys, Backing Vocals
Roland Jahoda - Drums, Percussion, Backing Vocals

Постеры

Автор

Аватара пользователя
RockMusic
SiLeNcE
SiLeNcE
 
Раздал: 5.54 ТБ
Скачал: 1.18 ТБ
Ратио: 4.688
Сообщения: 4726
Зарегистрирован: 21 окт 2011, 17:31
Репутация: 40
Откуда: Антильские о-ва (Нидерланды) Амстердам


Торрент

Автор: RockMusic
Добавлен: 20 сен 2012, 15:30
Размер: 333.14 МБ
Размер: 349 320 601 байт
Сидеров: 29
Личеров: 11
Скачали: 0
Здоровье: 100%
Статус: Проверен
Изменил: RockMusic (26 сен 2012, 09:06)
Скорость скачивания: 0 байт/сек
Скорость раздачи: 0 байт/сек
Последний сидер: 1 месяц 5 дней 14 часов 9 минут 13 секунд назад
Последний личер: 1 месяц 5 дней 14 часов 9 минут 13 секунд назад
Приватный: Нет (DHT включён)
AOR, Melodic, Classic & Hard Rock Скачать торрент
Скачать торрент
[ Размер 14.01 КБ / Просмотров 0 ]


Вернуться в AOR, Melodic, Classic & Hard Rock

Кто сейчас на конференции

Сейчас этот форум просматривают: нет зарегистрированных пользователей и гости: 1

Привет!

Привет, меня зовут Няша, я что-то типа ангела хранителя RipFunClub'а. Так как админ меня не дописал, я еще глупенькая, и ни чего не умею и между прочим мне за это очень стыдно =( К тому же мой вид меня смущает ='(

А пока я могу только предложить зарегистрироваться или залогинеться =)