Главная » ТрекерВидео (кино, ТВ)СериалыЗарубежные сериалыСитком / Комедийные сериалы
Версия для печати
Бессовестная реклама: на этой странице пока нет =)

Теория большого взрыва / The Big Bang Theory [S01-07] (2007 – 2013) HDTVRip | Кураж-Бамбей

Правила форума

Сообщение

Теория большого взрыва / The Big Bang Theory [S01-07] (2007 – 2013) HDTVRip | Кураж-Бамбей

Сообщение ayatosem » 07 дек 2012, 07:51

Год выпуска: 2007 – 2012
Страна: США
Жанр:комедия
Продолжительность: 00:22:00
Перевод: Профессиональный одноголосый закадровый (Кураж-Бамбей)
Русские субтитры: нет
Режиссёр: Марк Сендроуски / Mark Cendrowski, Питер Чакос / Peter Chakos, Энтони Джозеф Рич / Anthony Joseph Rich
В ролях: Джонни Галэки, Джим Парсонс, Кейли Куоко, Саймон Хелберг, Кунал Нэйэр

Описание: Два блестящих физика, Леонард и Шелдон, «великие умы», которые понимают, как «работает вселенная». Но их гениальность ничуть не помогает им общаться с людьми, особенно с женщинами. Всё начинает меняться, когда напротив них поселяется красавица Пенни.
Когда Леонард и Шелдон встречают Пенни, Леонард сразу же начинает интересоваться ею. Он видит в общении с Пенни огромную перспективу, вплоть до любви, однако Шелдон понимает, что мечтам его друга не суждено сбыться.
Стоит также отметить пару странных друзей этих физиков: Воловец, который любит употреблять фразы на разных языках, включая русский, и Раджеш Кутрапали, теряющий дар речи при виде женщин.

Сэмпл: http://multi-up.com/799788
Качество: HDTVRip
Формат: AVI

Видео:
624x352 (16/9), 23.976 fps, XViD ~1 045 Kbps (0.198 bit/pixel) – Сезон 1
624x352 (16/9), 23.976 fps, XViD ~1 037 Kbps (0.197 bit/pixel) – Сезон 2
640x352 (16/9), 23.976 fps, XViD ~1 053 Kbps (0.195 bit/pixel) – Сезон 3
624x352 (16/9), 23.976 fps, XViD ~1 027 Kbps (0.195 bit/pixel) – Сезон 4
624x352 (16/9), 23.976 fps, XViD ~1 015 Kbps (0.193 bit/pixel) – Сезон 5
656x368 (16/9), 23.976 fps, XViD ~1 052 Kbps (0.182 bit/pixel) – Сезон 6
656x368 (16/9), 23.976 fps, XViD ~1 041 Kbps (0.180 bit/pixel) – Сезон 7: 24 серии
Аудио: Русский: 48 kHz, MPEG Layer 3, 2 ch, ~160.00 kbps avg

General
Complete name: ..The Big Bang TheorySeason 1�1 – Pilot.avi
Format: AVI
Format/Info: Audio Video Interleave
File size: 178 MiB
Duration: 22mn 25s
Overall bit rate: 1 110 Kbps
Writing application: cant touch this
Writing library: VirtualDub-MPEG2 build 24586/release

Video
ID: 0
Format: MPEG-4 Visual
Format profile: Advanced Simple@L5
Format settings, BVOP: 2
Format settings, QPel: No
Format settings, GMC: No warppoints
Format settings, Matrix: Default (H.263)
Codec ID: XVID
Codec ID/Hint: XviD
Duration: 22mn 25s
Bit rate: 940 Kbps
Width: 624 pixels
Height: 352 pixels
Display aspect ratio: 16:9
Frame rate: 23.976 fps
Color space: YUV
Chroma subsampling: 4:2:0
Bit depth: 8 bits
Scan type: Progressive
Compression mode: Lossy
Bits/(Pixel*Frame): 0.179
Stream size: 151 MiB (85%)
Writing library: XviD 1.2.0.dev42 (UTC 2005-12)

Audio
ID: 1
Format: MPEG Audio
Format version: Version 1
Format profile: Layer 3
Codec ID: 55
Codec ID/Hint: MP3
Duration: 22mn 25s
Bit rate mode: Constant
Bit rate: 160 Kbps
Channel(s): 2 channels
Sampling rate: 44.1 KHz
Compression mode: Lossy
Stream size: 25.7 MiB (14%)
Alignment: Split accross interleaves
Interleave, duration: 42 ms (1.00 video frame)
Interleave, preload duration: 522 ms
[Для просмотра изображения необходимо включить JavaScript][Для просмотра изображения необходимо включить JavaScript][Для просмотра изображения необходимо включить JavaScript][Для просмотра изображения необходимо включить JavaScript][Для просмотра изображения необходимо включить JavaScript][Для просмотра изображения необходимо включить JavaScript]

Постеры

Автор

Аватара пользователя
ayatosem
Релизер
Релизер
 
Раздал: 10.55 ГБ
Скачал: 5.8 ГБ
Ратио: 1.820
Сообщения: 2359
Зарегистрирован: 10 май 2010, 10:09
Репутация: 22


Торрент

Автор: ayatosem
Добавлен: 20 май 2014, 17:27
Размер: 28.1 ГБ
Размер: 30 171 091 324 байт
Сидеров: 166
Личеров: 237
Скачали: 0
Здоровье: 70%
Статус: Обновлён
Изменил: T E K (20 май 2014, 17:28)
Скорость скачивания: 0 байт/сек
Скорость раздачи: 0 байт/сек
Последний сидер: 10 дней 13 часов 57 минут 48 секунд назад
Последний личер: 10 дней 13 часов 57 минут 48 секунд назад
Приватный: Нет (DHT включён)
Ситком / Комедийные сериалы Скачать торрент
Скачать торрент
[ Размер 84.95 КБ / Просмотров 28 ]


Вернуться в Ситком / Комедийные сериалы

Кто сейчас на конференции

Сейчас этот форум просматривают: нет зарегистрированных пользователей и гости: 1

Привет!

Привет, меня зовут Няша, я что-то типа ангела хранителя RipFunClub'а. Так как админ меня не дописал, я еще глупенькая, и ни чего не умею и между прочим мне за это очень стыдно =( К тому же мой вид меня смущает ='(

А пока я могу только предложить зарегистрироваться или залогинеться =)