Сообщество / Community [S04] (2013) WEB-DLRip-AVC | Кубик в Кубе RipFunClub | международный торрент-трекер
Главная » ТрекерВидео (кино, ТВ)СериалыЗарубежные сериалыСитком / Комедийные сериалы
Версия для печати
Бессовестная реклама: на этой странице пока нет =)

Сообщество / Community [S04] (2013) WEB-DLRip-AVC | Кубик в Кубе

Правила форума

Сообщение

Сообщество / Community [S04] (2013) WEB-DLRip-AVC | Кубик в Кубе

Сообщение tukat » 10 фев 2014, 17:15

Название: Сообщество
Оригинальное название: Community
Год выхода: 2013
Жанр: комедия
Режиссер: Энтони Руссо, Дэн Хармон
В ролях: Джоэль МакХэйл, Джиллиан Джейкобс, Дэнни Пуди, Чеви Чейз, Элисон Бри, Ивет Николь Браун, Дональд Гловер, Кен Жонг, Джон Оливер, Патриция Белчер

О фильме:
Сериал рассказывает о студенческом сообществе, которое состоит из школьных лузеров, недавно разведенных домохозяек и пожилых людей, старающихся сохранить трезвый ум.

[Для просмотра изображения необходимо включить JavaScript]

Выпущено: США, Krasnoff Foster Productions, Harmonius Claptrap, Russo Brothers, Universal Media Studios (UMS), Sony Pictures Television
Продолжительность: 13 x ~00:21:00
Перевод: Профессиональный (двухголосый, закадровый) - Кубик в Кубе

Качество: WEB-DLRip-AVC (исходник WEB-DL 1080p)
Формат: MKV
Видео кодек: x264
Аудио кодек: AC3
Видео: 1024x576, 23.976 fps, 1999 kbps, 0.141 bit/pixel
Аудио #1: 16 bit, 48 kHz, 192 kbps, 2 ch | Русский, двухголосый
Аудио #2: 16 bit, 48 kHz, 384 kbps, 5.1 | Английский, оригинальная дорожка
01. History 101
02. Paranormal Parentage
03. Conventions of Space and Time
04. Alternative History of the German Invasion
05. Cooperative Escapism In Familial Relations
06. Advanced Dоcumentary Filmmaking
07. Economics of Marine Biology
08. Herstory of Dance
09. Intro To Felt Surrogacy
10. Intro To Knots
11. Basic Human Anatomy
12. Heroic Origins
13. Advanced Introduction to Finality
Общее
Уникальный идентификатор : 204571069254469418367028032504428834001 (0x99E6F46DFC5BDC28B0A0DC03EB412CD1)
Полное имя : F:VideoUploadTV ShowsCommunity.s04.WEB-DLRip-AVC.Kubik.v.KubeCommunity.s04e01.WEB-DLRip-AVC.DVO.Kubik.v.Kube.mkv
Формат : Matroska
Версия формата : Version 4 / Version 2
Размер файла : 395 Мбайт
Продолжительность : 21 м.
Общий поток : 2578 Кбит/сек
Название фильма : Rip by hintoz
Дата кодирования : UTC 2013-02-26 02:28:21
Программа кодирования : mkvmerge v6.0.0 ('Coming Up For Air') built on Jan 20 2013 09:52:00
Библиотека кодирования : libebml v1.3.0 + libmatroska v1.4.0

Видео
Идентификатор : 1
Формат : AVC
Формат/Информация : Advanced Video Codec
Профиль формата : High@L3.1
Параметр CABAC формата : Да
Параметр ReFrames формата : 5 кадров
Идентификатор кодека : V_MPEG4/ISO/AVC
Продолжительность : 21 м.
Битрейт : 1999 Кбит/сек
Ширина : 1024 пикселя
Высота : 576 пикселей
Соотношение сторон : 16:9
Режим частоты кадров : Постоянный
Частота кадров : 23,976 кадра/сек
Цветовое пространство : YUV
Субдискретизация насыщенности : 4:2:0
Битовая глубина : 8 бит
Тип развёртки : Прогрессивная
Бит/(Пиксели*Кадры) : 0.141
Размер потока : 299 Мбайт (76%)
Библиотека кодирования : x264 core 129 r2245 bc13772
Настройки программы : cabac=1 / ref=5 / deblock=1:0:0 / analyse=0x3:0x133 / me=umh / subme=10 / psy=1 / psy_rd=1.00:0.15 / mixed_ref=1 / me_range=32 / chroma_me=1 / trellis=2 / 8x8dct=1 / cqm=0 / deadzone=21,11 / fast_pskip=0 / chroma_qp_offset=-3 / threads=12 / lookahead_threads=2 / sliced_threads=0 / nr=0 / decimate=0 / interlaced=0 / bluray_compat=0 / constrained_intra=0 / bframes=4 / b_pyramid=2 / b_adapt=2 / b_bias=0 / direct=3 / weightb=1 / open_gop=0 / weightp=2 / keyint=240 / keyint_min=23 / scenecut=40 / intra_refresh=0 / rc_lookahead=40 / rc=2pass / mbtree=1 / bitrate=1999 / ratetol=1.0 / qcomp=0.60 / qpmin=0 / qpmax=69 / qpstep=4 / cplxblur=20.0 / qblur=0.5 / ip_ratio=1.40 / aq=1:1.00
Язык : English
Default : Да
Forced : Нет

Аудио #1
Идентификатор : 2
Формат : AC-3
Формат/Информация : Audio Coding 3
Расширение режима : CM (complete main)
Параметр Endianness формата : Big
Идентификатор кодека : A_AC3
Продолжительность : 21 м.
Вид битрейта : Постоянный
Битрейт : 192 Кбит/сек
Каналы : 2 канала
Расположение каналов : Front: L R
Частота : 48,0 КГц
Битовая глубина : 16 бит
Метод сжатия : С потерями
Размер потока : 29,5 Мбайт (7%)
Заголовок : DVO Кубик в Кубе
Язык : Russian
Default : Да
Forced : Нет

Аудио #2
Идентификатор : 3
Формат : AC-3
Формат/Информация : Audio Coding 3
Расширение режима : CM (complete main)
Параметр Endianness формата : Big
Идентификатор кодека : A_AC3
Продолжительность : 21 м.
Вид битрейта : Постоянный
Битрейт : 384 Кбит/сек
Каналы : 6 каналов
Расположение каналов : Front: L C R, Side: L R, LFE
Частота : 48,0 КГц
Битовая глубина : 16 бит
Метод сжатия : С потерями
Размер потока : 58,9 Мбайт (15%)
Заголовок : Original
Язык : English
Default : Нет
Forced : Нет

Постеры

Автор

Аватара пользователя
tukat
Супераплоадеры
Супераплоадеры
 
Раздал: 999.61 МБ
Скачал: 4.91 ГБ
Ратио: 0.199
Сообщения: 2439
Зарегистрирован: 24 мар 2010, 14:33
Репутация: 27


Торрент

Автор: tukat
Добавлен: 10 фев 2014, 17:15
Размер: 5.16 ГБ
Размер: 5 541 694 656 байт
Сидеров: 11
Личеров: 2
Скачали: 0
Здоровье: 100%
Статус: Проверен
Изменил: T E K (10 фев 2014, 17:16)
Скорость скачивания: 0 байт/сек
Скорость раздачи: 0 байт/сек
Последний сидер: 4 месяца 2 дня 12 часов 18 минут 55 секунд назад
Последний личер: 4 месяца 2 дня 12 часов 18 минут 55 секунд назад
Приватный: Нет (DHT включён)
Ситком / Комедийные сериалы Скачать торрент
Скачать торрент
[ Размер 14.67 КБ / Просмотров 6 ]


Вернуться в Ситком / Комедийные сериалы

Кто сейчас на конференции

Сейчас этот форум просматривают: нет зарегистрированных пользователей и гости: 1

Привет!

Привет, меня зовут Няша, я что-то типа ангела хранителя RipFunClub'а. Так как админ меня не дописал, я еще глупенькая, и ни чего не умею и между прочим мне за это очень стыдно =( К тому же мой вид меня смущает ='(

А пока я могу только предложить зарегистрироваться или залогинеться =)