Главная » ТрекерВидео (кино, ТВ)СериалыНаши сериалыВоенный
Версия для печати
Бессовестная реклама: на этой странице пока нет =)

Смерть шпионам: Операция «Лисья нора» [01-04 из 04] (2012) DVDRip | лицензия

Правила форума

Сообщение

Смерть шпионам: Операция «Лисья нора» [01-04 из 04] (2012) DVDRip | лицензия

Сообщение bambywa » 07 май 2013, 16:20

Год выпуска: 2012
Выпущено: Россия, Беларусь / Беларусьфильм
Жанр: боевик, военный
Продолжительность: 00:46:35 + 00:46:46 + 00:46:46 + 00:48:26
Перевод: не требуется
Оригинальная аудиодорожка: русский
Субтитры: нет
Режиссер: Александр Даруга
В ролях: Павел Трубинер, Анатолий Руденко, Евгений Никитин, Карл Ахляйтнер, Жан-Марк Биркхольц, Игорь Сигов, Манфред Фау, Вероника Пляшкевич, Иван Мацкевич, Олег Ткачёв...

Описание: 1944 год, Белоруссия. Немецкие диверсанты, действующие в советском тылу, совершают нападение на машину представителя Генерального штаба Красной Армии и похищают важные документы. Пытаясь перейти линию фронта, командир группы немецкий полковник Нойбер прячет документы в лесу и попадает в плен. Теперь только он знает место тайника с секретным портфелем. По поручению Гиммлера, Скорцени готовит новый отряд специально подготовленных бойцов, цель которого — освободить из плена полковника Нойбера и вывезти спрятанные им документы в Германию. Диверсантам противостоят сотрудники советской армейской контрразведи «Смерш».

[Для просмотра изображения необходимо включить JavaScript]

Качество видео: DVDRip [DVD9 R5]
Формат видео: AVI
Видео: 720x400 (16:9), XviD 2000 Кбит/сек 25,000 fps / Бит/(Пиксели*Кадры): 0.278
Аудио: Dolby Digital Audio Russian 192 kbps 2.0 / 48 kHz
Общее
Полное имя : Smert.shpionam.Lisya.nora.2012.DVDRip_[youtracker]_by_avproh1.avi
Формат : AVI
Формат/Информация : Audio Video Interleave
Размер файла : 733 Мбайт
Продолжительность : 46 м.
Общий поток : 2201 Кбит/сек
Программа кодирования : VirtualDubMod 1.5.10.3 | http://www.virtualdub-fr.org || (build 2550/release)
Библиотека кодирования : VirtualDubMod build 2550/release

Видео
Идентификатор : 0
Формат : MPEG-4 Visual
Профиль формата : Advanced Simple@L5
Параметр BVOP формата : 1
Параметр QPel формата : Нет
Параметр GMC формата : Без точки перехода
Параметр матрицы формата : Выборочная
Идентификатор кодека : XVID
Идентификатор кодека/Подсказка : XviD
Продолжительность : 46 м.
Битрейт : 2000 Кбит/сек
Ширина : 720 пикселей
Высота : 400 пикселей
Соотношение сторон : 16:9
Частота кадров : 25,000 кадров/сек
Цветовое пространство : YUV
Субдискретизация насыщенности : 4:2:0
Битовая глубина : 8 бит
Тип развёртки : Прогрессивная
Метод сжатия : С потерями
Бит/(Пиксели*Кадры) : 0.278
Размер потока : 666 Мбайт (91%)
Библиотека кодирования : XviD 65

Аудио
Идентификатор : 1
Формат : AC-3
Формат/Информация : Audio Coding 3
Расширение режима : CM (complete main)
Параметр Endianness формата : Big
Идентификатор кодека : 2000
Продолжительность : 46 м.
Вид битрейта : Постоянный
Битрейт : 192 Кбит/сек
Каналы : 2 канала
Расположение каналов : Front: L R
Частота : 48,0 КГц
Битовая глубина : 16 бит
Метод сжатия : С потерями
Размер потока : 64,0 Мбайт (9%)
Выравнивание : Разделение по промежуткам
Продолжительность промежутка : 40 мс. (1,00 видеокадр)
Время предзагрузки промежутка : 500 мс.
[Для просмотра изображения необходимо включить JavaScript][Для просмотра изображения необходимо включить JavaScript][Для просмотра изображения необходимо включить JavaScript][Для просмотра изображения необходимо включить JavaScript][Для просмотра изображения необходимо включить JavaScript][Для просмотра изображения необходимо включить JavaScript]

Постеры

Автор

Аватара пользователя
bambywa
Релизер
Релизер
 
Раздал: 281.45 МБ
Скачал: 9.51 ГБ
Ратио: 0.029
Сообщения: 1600
Зарегистрирован: 18 апр 2010, 10:45
Репутация: 26


Торрент

Автор: bambywa
Добавлен: 07 май 2013, 16:20
Размер: 2.9 ГБ
Размер: 3 113 302 016 байт
Сидеров: 3573
Личеров: 3435
Скачали: 6
Здоровье: 100%
Раздающих: 100%
Статус: Проверен
Изменил: T E K (07 май 2013, 16:23)
Скорость скачивания: 0 байт/сек
Скорость раздачи: 0 байт/сек
Последний сидер: 1 месяц 10 дней 19 минут 50 секунд назад
Последний личер: 1 месяц 10 дней 19 минут 50 секунд назад
Приватный: Нет (DHT включён)
Военный Скачать торрент
Скачать торрент
[ Размер 15.19 КБ / Просмотров 27 ]


Re: Смерть шпионам: Операция «Лисья нора» [01-04 из 04] (2012) DVDRip | лицензия

Сообщение saratovskii2 » 09 фев 2016, 10:42

Спасибо!!!
Аватара пользователя
saratovskii2
 
Раздал: 488.89 ГБ
Скачал: 210.44 ГБ
Ратио: 2.323
Сообщения: 1
Зарегистрирован: 21 июн 2011, 16:52
Репутация: 0


Вернуться в Военный

Кто сейчас на конференции

Сейчас этот форум просматривают: нет зарегистрированных пользователей и гости: 1

Привет!

Привет, меня зовут Няша, я что-то типа ангела хранителя RipFunClub'а. Так как админ меня не дописал, я еще глупенькая, и ни чего не умею и между прочим мне за это очень стыдно =( К тому же мой вид меня смущает ='(

А пока я могу только предложить зарегистрироваться или залогинеться =)