Главная » ТрекерВидео (кино, ТВ)СериалыНаши сериалыСитком / Комедийные сериалы
Версия для печати
Бессовестная реклама: на этой странице пока нет =)

Два отца и два сына [01-20 из 20] (2013) DVDRip | лицензия

Правила форума

Сообщение

Два отца и два сына [01-20 из 20] (2013) DVDRip | лицензия

Сообщение ayatosem » 31 мар 2014, 17:24


Страна: Россия / Yellow, Black & White
Жанр: комедия
Год выпуска: 2013
Продолжительность: 00:24:00 / серия
Перевод: Не требуется
Cубтитры: нет
Оригинальная аудиодорожка: русский
Режиссер: Радда Новикова
В ролях: Дмитрий Нагиев, Максим Студеновский, Илья Костюков, Виктория Лукина, Анна Якунина, Галина Петрова, Виктория Чернышёва, Александр Воронков, Юрий Панов, Михаил Данилин...

Описание: Павел Гуров — успешный актер, звезда телевизионного сериала «Майор Лавров». В жизни Гуров состоявшийся человек, состоятельный Казанова, который прожигает жизнь ради собственных удовольствий.
Всё меняется, когда на пороге его элитной квартиры появляется Виктор — сын, которого Павел бросил 20 лет назад, уехав в Москву строить свою актерскую карьеру. Виктор приезжает вместе с внуком Владом, которого Павел вообще никогда не видел. Виктор — полная противоположность Павла: неудачник, зануда, однолюб. Влад — смышлёный, инициативный мальчик.
Виктор стремится в Москву вслед за своей женой, которая бросила их с Владом в Брянске, уехав в столицу с мечтами стать актрисой. Виктор уверен, что за пару дней убедит жену вернуться в семью, и они вместе вернутся в Брянск. Но в силу обстоятельств Вите приходится задержаться, и Павел Гуров неожиданно для себя становится и отцом, и дедом.

[Для просмотра изображения необходимо включить JavaScript]

Качество: DVDRip / 2 x DVD9 R5
Формат: AVI
Видео: 720x400 (16:9), 25.000 fps, XviD ~ 1800 kbps avg, 0.250 bit/pixel
Аудио: 48 kHz, Dolby AC3, 2 ch, 128 kbps, русский
Общее
Полное имя : Dva.otsa.i.dva.syna.2013.O.DVDRip_[New-Team]_by_avproh\01.avi
Формат : AVI
Формат/Информация : Audio Video Interleave
Размер файла : 342 Мбайт
Продолжительность : 24 м.
Общий поток : 1938 Кбит/сек
Программа кодирования : VirtualDubMod 1.5.10.3 | http://www.virtualdub-fr.org || (build 2550/release)
Библиотека кодирования : VirtualDubMod build 2550/release

Видео
Идентификатор : 0
Формат : MPEG-4 Visual
Профиль формата : Advanced Simple@L5
Параметр BVOP формата : 1
Параметр QPel формата : Нет
Параметр GMC формата : Без точки перехода
Параметр матрицы формата : Выборочная
Идентификатор кодека : XVID
Идентификатор кодека/Подсказка : XviD
Продолжительность : 24 м.
Битрейт : 1801 Кбит/сек
Ширина : 720 пикселей
Высота : 400 пикселей
Соотношение сторон : 16:9
Частота кадров : 25,000 кадров/сек
Цветовое пространство : YUV
Субдискретизация насыщенности : 4:2:0
Битовая глубина : 8 бит
Тип развёртки : Прогрессивная
Метод сжатия : С потерями
Бит/(Пиксели*Кадры) : 0.250
Размер потока : 317 Мбайт (93%)
Библиотека кодирования : XviD 73

Аудио
Идентификатор : 1
Формат : AC-3
Формат/Информация : Audio Coding 3
Расширение режима : CM (complete main)
Параметр Endianness формата : Big
Идентификатор кодека : 2000
Продолжительность : 24 м.
Вид битрейта : Постоянный
Битрейт : 128 Кбит/сек
Каналы : 2 канала
Расположение каналов : Front: L R
Частота : 48,0 КГц
Битовая глубина : 16 бит
Метод сжатия : С потерями
Размер потока : 22,6 Мбайт (7%)
Выравнивание : Разделение по промежуткам
Продолжительность промежутка : 40 мс. (1,00 видеокадр)
Время предзагрузки промежутка : 500 мс.

Постеры

Автор

Аватара пользователя
ayatosem
Релизер
Релизер
 
Раздал: 10.55 ГБ
Скачал: 5.8 ГБ
Ратио: 1.820
Сообщения: 2355
Зарегистрирован: 10 май 2010, 10:09
Репутация: 22


Торрент

Автор: ayatosem
Добавлен: 31 мар 2014, 17:24
Размер: 6.53 ГБ
Размер: 7 016 761 344 байт
Сидеров: 379
Личеров: 44
Скачали: 1
Здоровье: 100%
Раздающих: 100%
Статус: Проверен
Изменил: T E K (31 мар 2014, 17:25)
Скорость скачивания: 0 байт/сек
Скорость раздачи: 0 байт/сек
Последний сидер: 11 дней 12 часов 23 минуты 43 секунды назад
Последний личер: 11 дней 12 часов 23 минуты 43 секунды назад
Приватный: Нет (DHT включён)
Ситком / Комедийные сериалы Скачать торрент
Скачать торрент
[ Размер 17.92 КБ / Просмотров 63 ]


Вернуться в Ситком / Комедийные сериалы

Кто сейчас на конференции

Сейчас этот форум просматривают: нет зарегистрированных пользователей и гости: 1

Привет!

Привет, меня зовут Няша, я что-то типа ангела хранителя RipFunClub'а. Так как админ меня не дописал, я еще глупенькая, и ни чего не умею и между прочим мне за это очень стыдно =( К тому же мой вид меня смущает ='(

А пока я могу только предложить зарегистрироваться или залогинеться =)