Главная » ТрекерВидео (кино, ТВ)Художественное киноНаше кино(Rips)Исторический/Военный
Версия для печати
Бессовестная реклама: на этой странице пока нет =)

Туман 2 (2012) DVDRip

Правила форума

Сообщение

Туман 2 (2012) DVDRip

Сообщение bambywa » 07 май 2013, 16:48

Страна: Россия
Производство: "ВВП Альянс"
Жанр: фантастика, драма, военный
Год выпуска: 2012
Продолжительность: 02:27:42
Перевод: не требуется
Оригинальная аудиодорожка: русский
Cубтитры: нет
Режиссёр: Иван Шурховецкий
В ролях:
Григорий Калинин, Дмитрий Сергин, Артем Крестников, Иван Лапин, Алексей Марков, Ирина Горбачева, Нодари Джанелидзе, Алексей Митин, Юрий Уткин, Сергей Гарусов...

Описание:
Во время празднования дня Победы герои понимают, что тематическая военная вечеринка сменилась реальностью фашистского тыла. Пятеро парней, известных зрителям по первой части фильма, оказываются в немецкой пивной. В суматохе боя им удается бежать, однако в неразберихе «пришельцы из 21 века» случайно ранят красноармейца по фамилии Кантария. Друзья понимают, что если тот не выживет, то изменится ход истории — кто же будет водружать флаг на Рейхстаг? Теперь их задача — добраться до своих, не дать погибнуть будущему герою войны и, конечно, вернуться обратно в свое время…

[Для просмотра изображения необходимо включить JavaScript]

Исходник: DVD5 R5
Тип релиза: DVDRip
Контейнер: AVI
Видео: 720x400 (1,800:1), 25 fps, XviD ~ 1 887 kbps avg, 0.262 bit/pixel
Аудио: 48 kHz, Dolby AC3 2.0, 224 kbps
Общее
Полное имя : Tuman.2.2012.DVDRip_[Youtracker]_by_AVP Studio.avi
Формат : AVI
Формат/Информация : Audio Video Interleave
Профиль формата : OpenDML
Размер файла : 2,19 Гбайт
Продолжительность : 2 ч. 27 м.
Общий поток : 2123 Кбит/сек
Программа кодирования : VirtualDubModRus 1.5.10.2 (build 2542/release)
Библиотека кодирования : VirtualDubMod build 2542/release

Видео
Идентификатор : 0
Формат : MPEG-4 Visual
Профиль формата : Advanced Simple@L5
Параметр BVOP формата : 1
Параметр QPel формата : Нет
Параметр GMC формата : Без точки перехода
Параметр матрицы формата : Выборочная
Идентификатор кодека : XVID
Идентификатор кодека/Подсказка : XviD
Продолжительность : 2 ч. 27 м.
Битрейт : 1887 Кбит/сек
Ширина : 720 пикселей
Высота : 400 пикселей
Соотношение сторон : 16:9
Частота кадров : 25,000 кадров/сек
Цветовое пространство : YUV
Субдискретизация насыщенности : 4:2:0
Битовая глубина : 8 бит
Тип развёртки : Прогрессивная
Метод сжатия : С потерями
Бит/(Пиксели*Кадры) : 0.262
Размер потока : 1,95 Гбайт (89%)
Библиотека кодирования : XviD 65

Аудио
Идентификатор : 1
Формат : AC-3
Формат/Информация : Audio Coding 3
Расширение режима : CM (complete main)
Идентификатор кодека : 2000
Продолжительность : 2 ч. 27 м.
Вид битрейта : Постоянный
Битрейт : 224 Кбит/сек
Каналы : 2 канала
Расположение каналов : Front: L R
Частота : 48,0 КГц
Битовая глубина : 16 бит
Метод сжатия : С потерями
Размер потока : 237 Мбайт (11%)
Выравнивание : Разделение по промежуткам
Продолжительность промежутка : 40 мс. (1,00 видеокадр)
Время предзагрузки промежутка : 500 мс
[Для просмотра изображения необходимо включить JavaScript][Для просмотра изображения необходимо включить JavaScript][Для просмотра изображения необходимо включить JavaScript][Для просмотра изображения необходимо включить JavaScript][Для просмотра изображения необходимо включить JavaScript]

Постеры

Автор

Аватара пользователя
bambywa
Релизер
Релизер
 
Раздал: 281.45 МБ
Скачал: 9.51 ГБ
Ратио: 0.029
Сообщения: 1596
Зарегистрирован: 18 апр 2010, 10:45
Репутация: 26


Торрент

Автор: bambywa
Добавлен: 07 май 2013, 16:48
Размер: 2.19 ГБ
Размер: 2 352 113 664 байт
Сидеров: 1191
Личеров: 1165
Скачали: 2
Здоровье: 100%
Статус: Проверен
Изменил: T E K (07 май 2013, 16:52)
Скорость скачивания: 0 байт/сек
Скорость раздачи: 0 байт/сек
Последний сидер: 1 месяц 22 дня 14 часов 42 минуты 46 секунд назад
Последний личер: 1 месяц 22 дня 14 часов 42 минуты 46 секунд назад
Приватный: Нет (DHT включён)
Исторический/Военный Скачать торрент
Скачать торрент
[ Размер 11.73 КБ / Просмотров 18 ]


Вернуться в Исторический/Военный

Кто сейчас на конференции

Сейчас этот форум просматривают: нет зарегистрированных пользователей и гости: 1

Привет!

Привет, меня зовут Няша, я что-то типа ангела хранителя RipFunClub'а. Так как админ меня не дописал, я еще глупенькая, и ни чего не умею и между прочим мне за это очень стыдно =( К тому же мой вид меня смущает ='(

А пока я могу только предложить зарегистрироваться или залогинеться =)