Главная » ТрекерМузыкаРетро, Шансон, Военная музыка и Барды
Версия для печати
Бессовестная реклама: на этой странице пока нет =)

Аллея шансона. Музыкальная коллекция МК (35 CD) - 2011

Сообщение

Аллея шансона. Музыкальная коллекция МК (35 CD) - 2011

Сообщение Yoshkinkot » 14 окт 2011, 17:51

Жанр: Chanson
Страна-производитель диска: Россия
Количество CD в раздаче: 35
Год издания диска: 2011
Издатель (лейбл): Квадро
Страна: Россия
Аудиокодек: MP3
Тип рипа: tracks
Битрейт аудио: 320 kbps
Источник (релизер): ars_havin
Наличие сканов в содержимом раздачи: да
[Для просмотра изображения необходимо включить JavaScript]
Дата выхода: 01/02/11
01 - Вальс-Бостон
02 - Утиная охота
03 - Ау
04 - Где-нибудь, как-нибудь
05 - На плантациях любви
06 - Перекати-поле
07 - Необычно, незнакомо
08 - Вещая судьба
09 - Хорунжий
10 - Жеребенок
11 - Воскресенье
12 - Если было бы можно
13 - Гоп-стоп
14 - Сусуманская лирическая
15 - Лето в садоводстве
16 - Покажите мне Москву
17 - Приморский парк победы
Продолжительность: 75:15
Exact Audio Copy V1.0 beta 1 from 15. November 2010
EAC extraction logfile from 2. February 2011, 17:07
Александр Розенбаум / Аллея шансона. Коллекция МК
Used drive : HL-DT-STDVDRAM GT20L Adapter: 1 ID: 0
Read mode : SecureUtilize accurate stream : YesDefeat audio cache : YesMake use of C2 pointers : No
Read offset correction : 667Overread into Lead-In and Lead-Out : NoFill up missing offset samples with silence : YesDelete leading and trailing silent blocks : NoNull samples used in CRC calculations : YesUsed interface : Native Win32 interface for Win NT & 2000
Used output format : User Defined EncoderSelected bitrate : 1024 kBit/sQuality : HighAdd ID3 tag : NoCommand line compressor : C:\Program Files (x86)\Exact Audio Copy\FLAC\FLAC.EXEAdditional command line options : -8 -V %s
TOC of the extracted CD
Track | Start | Length | Start sector | End sector --------------------------------------------------------- 1 | 0:00.00 | 4:14.50 | 0 | 19099 2 | 4:14.50 | 4:44.03 | 19100 | 40402 3 | 8:58.53 | 4:58.01 | 40403 | 62753 4 | 13:56.54 | 4:06.64 | 62754 | 81267 5 | 18:03.43 | 5:36.07 | 81268 | 106474 6 | 23:39.50 | 3:40.47 | 106475 | 123021 7 | 27:20.22 | 3:08.47 | 123022 | 137168 8 | 30:28.69 | 4:43.32 | 137169 | 158425 9 | 35:12.26 | 5:47.59 | 158426 | 184509 10 | 41:00.10 | 3:43.58 | 184510 | 201292 11 | 44:43.68 | 3:53.47 | 201293 | 218814 12 | 48:37.40 | 6:49.61 | 218815 | 249550 13 | 55:27.26 | 3:52.04 | 249551 | 266954 14 | 59:19.30 | 4:45.45 | 266955 | 288374 15 | 64:05.00 | 3:44.66 | 288375 | 305240 16 | 67:49.66 | 3:10.26 | 305241 | 319516 17 | 71:00.17 | 4:14.61 | 319517 | 338627
Range status and errors
Selected range
Filename D:\Audio\Chanson\А.Розенбаум\Аллея шансона. МК\Александр Розенбаум - Аллея шансона. Коллекция МК.wav
Peak level 95.5 % Extraction speed 0.1 X Range quality 100.0 % Test CRC 835C1E32 Copy CRC 835C1E32 Copy OK
No errors occurred
End of status report
[Для просмотра изображения необходимо включить JavaScript]
Дата выхода: 08/02/11
01 - Свеча
02 - Приди ко мне
03 - Темные глаза
04 - Позывные на любовь
05 - За женщин всех
06 - Париж, Париж...
07 - Сказочный мир
08 - Танго
09 - Осеннее расставание
10 - Я к вечности шагаю
11 - Серый дождь
12 - Мне б успеть сказать
13 - Мой друг
14 - Без тебя
15 - Забудь
16 - Отпускаю
17 - Ветер
18 - Ну, вот и все
Продолжительность: 70:05
Exact Audio Copy V1.0 beta 1 from 15. November 2010
EAC extraction logfile from 9. February 2011, 1:14
Стас Михайлов / Аллея шансона. Коллекция МК. Часть 1
Used drive : HL-DT-STDVDRAM GT20L Adapter: 1 ID: 0
Read mode : SecureUtilize accurate stream : YesDefeat audio cache : YesMake use of C2 pointers : No
Read offset correction : 667Overread into Lead-In and Lead-Out : NoFill up missing offset samples with silence : YesDelete leading and trailing silent blocks : NoNull samples used in CRC calculations : YesUsed interface : Native Win32 interface for Win NT & 2000
Used output format : User Defined EncoderSelected bitrate : 1024 kBit/sQuality : HighAdd ID3 tag : NoCommand line compressor : C:\Program Files (x86)\Exact Audio Copy\FLAC\FLAC.EXEAdditional command line options : -8 -V %s
TOC of the extracted CD
Track | Start | Length | Start sector | End sector --------------------------------------------------------- 1 | 0:00.00 | 4:35.11 | 0 | 20635 2 | 4:35.11 | 4:20.41 | 20636 | 40176 3 | 8:55.52 | 3:58.55 | 40177 | 58081 4 | 12:54.32 | 3:22.21 | 58082 | 73252 5 | 16:16.53 | 3:39.36 | 73253 | 89713 6 | 19:56.14 | 3:58.30 | 89714 | 107593 7 | 23:54.44 | 3:08.74 | 107594 | 121767 8 | 27:03.43 | 3:42.08 | 121768 | 138425 9 | 30:45.51 | 3:21.42 | 138426 | 153542 10 | 34:07.18 | 3:32.46 | 153543 | 169488 11 | 37:39.64 | 4:10.06 | 169489 | 188244 12 | 41:49.70 | 3:49.03 | 188245 | 205422 13 | 45:38.73 | 4:49.01 | 205423 | 227098 14 | 50:27.74 | 4:19.72 | 227099 | 246595 15 | 54:47.71 | 3:54.49 | 246596 | 264194 16 | 58:42.45 | 3:44.60 | 264195 | 281054 17 | 62:27.30 | 3:33.14 | 281055 | 297043 18 | 66:00.44 | 4:04.47 | 297044 | 315390
Range status and errors
Selected range
Filename C:\Users\Odemwingie\Desktop\Стас Михайлов - Аллея шансона. Коллекция МК. Часть 1.wav
Peak level 97.9 % Extraction speed 0.1 X Range quality 100.0 % Test CRC 06EDB0A8 Copy CRC 06EDB0A8 Copy OK
No errors occurred
End of status report
[Для просмотра изображения необходимо включить JavaScript]
Дата выхода: 15/02/11
01 - Моя любовь
02 - Все для тебя
03 - Родная
04 - Нежданная любовь
05 - Два сердца
06 - Звездой на небо
07 - Женщина-обман
08 - Берега мечты
09 - Душа
10 - Жизнь-река
11 - Дайте мне
12 - Живу и таю
13 - Небеса
14 - По тонкому льду
15 - Жди
16 - Мы все
17 - Странник
18 - Холодно
Продолжительность: 74:04
Exact Audio Copy V1.0 beta 1 from 15. November 2010
EAC extraction logfile from 16. February 2011, 18:27
Стас Михайлов / Аллея шансона. Коллекция МК. Часть 2
Used drive : HL-DT-STDVDRAM GT20L Adapter: 1 ID: 0
Read mode : SecureUtilize accurate stream : YesDefeat audio cache : YesMake use of C2 pointers : No
Read offset correction : 667Overread into Lead-In and Lead-Out : NoFill up missing offset samples with silence : YesDelete leading and trailing silent blocks : NoNull samples used in CRC calculations : YesUsed interface : Native Win32 interface for Win NT & 2000
Used output format : User Defined EncoderSelected bitrate : 1024 kBit/sQuality : HighAdd ID3 tag : NoCommand line compressor : C:\Program Files (x86)\Exact Audio Copy\FLAC\FLAC.EXEAdditional command line options : -8 -V %s
TOC of the extracted CD
Track | Start | Length | Start sector | End sector --------------------------------------------------------- 1 | 0:00.00 | 4:02.22 | 0 | 18171 2 | 4:02.22 | 3:56.16 | 18172 | 35887 3 | 7:58.38 | 3:38.23 | 35888 | 52260 4 | 11:36.61 | 3:57.49 | 52261 | 70084 5 | 15:34.35 | 3:26.38 | 70085 | 85572 6 | 19:00.73 | 3:16.20 | 85573 | 100292 7 | 22:17.18 | 3:49.53 | 100293 | 117520 8 | 26:06.71 | 3:53.01 | 117521 | 134996 9 | 29:59.72 | 4:19.07 | 134997 | 154428 10 | 34:19.04 | 4:32.36 | 154429 | 174864 11 | 38:51.40 | 4:40.60 | 174865 | 195924 12 | 43:32.25 | 3:54.43 | 195925 | 213517 13 | 47:26.68 | 5:29.35 | 213518 | 238227 14 | 52:56.28 | 4:06.62 | 238228 | 256739 15 | 57:03.15 | 3:58.39 | 256740 | 274628 16 | 61:01.54 | 4:59.21 | 274629 | 297074 17 | 66:01.00 | 3:43.22 | 297075 | 313821 18 | 69:44.22 | 4:19.45 | 313822 | 333291
Range status and errors
Selected range
Filename D:\Music\Аллея шансона. Коллекция МК (lossless)\CD_3 - Стас Михайлов. Часть_2\Стас Михайлов - Аллея шансона. Коллекция МК. Часть 2.wav
Peak level 98.1 % Extraction speed 0.2 X Range quality 100.0 % Test CRC A58DB034 Copy CRC A58DB034 Copy OK
No errors occurred
End of status report
[Для просмотра изображения необходимо включить JavaScript]
Дата выхода: 22/02/11
01 - Курю
02 - Лапки
03 - Ванечка
04 - Абсент
05 - Внутри
06 - Клавиши
07 - Неформат
08 - Океаны
09 - Мосты
10 - Не забывай
11 - Наливай
12 - Папа нарисуй
13 - Перрон
14 - Мамочка
15 - Города
16 - Кони
17 - Гуцулочка
18 - Оловянное сердце
Продолжительность: 67:52
Exact Audio Copy V1.0 beta 1 from 15. November 2010
EAC extraction logfile from 23. February 2011, 11:10
Елена Ваенга / Аллея шансона. Коллекция МК
Used drive : HL-DT-STDVDRAM GT20L Adapter: 1 ID: 0
Read mode : SecureUtilize accurate stream : YesDefeat audio cache : YesMake use of C2 pointers : No
Read offset correction : 667Overread into Lead-In and Lead-Out : NoFill up missing offset samples with silence : YesDelete leading and trailing silent blocks : NoNull samples used in CRC calculations : YesUsed interface : Native Win32 interface for Win NT & 2000
Used output format : User Defined EncoderSelected bitrate : 1024 kBit/sQuality : HighAdd ID3 tag : NoCommand line compressor : C:\Program Files (x86)\Exact Audio Copy\FLAC\FLAC.EXEAdditional command line options : -8 -V %s
TOC of the extracted CD
Track | Start | Length | Start sector | End sector --------------------------------------------------------- 1 | 0:00.00 | 5:10.11 | 0 | 23260 2 | 5:10.11 | 3:29.27 | 23261 | 38962 3 | 8:39.38 | 3:31.09 | 38963 | 54796 4 | 12:10.47 | 3:19.49 | 54797 | 69770 5 | 15:30.21 | 4:20.04 | 69771 | 89274 6 | 19:50.25 | 3:49.44 | 89275 | 106493 7 | 23:39.69 | 3:11.47 | 106494 | 120865 8 | 26:51.41 | 4:13.32 | 120866 | 139872 9 | 31:04.73 | 3:46.44 | 139873 | 156866 10 | 34:51.42 | 4:18.06 | 156867 | 176222 11 | 39:09.48 | 3:07.45 | 176223 | 190292 12 | 42:17.18 | 2:57.03 | 190293 | 203570 13 | 45:14.21 | 3:28.17 | 203571 | 219187 14 | 48:42.38 | 3:45.50 | 219188 | 236112 15 | 52:28.13 | 4:45.12 | 236113 | 257499 16 | 57:13.25 | 3:56.56 | 257500 | 275255 17 | 61:10.06 | 3:08.74 | 275256 | 289429 18 | 64:19.05 | 3:31.55 | 289430 | 305309
Range status and errors
Selected range
Filename D:\Music\Аллея шансона. Коллекция МК (lossless)\CD_4 - Елена Ваенга\Елена Ваенга - Аллея шансона. Коллекция МК.wav
Peak level 100.0 % Extraction speed 0.2 X Range quality 99.9 % Test CRC 310427E0 Copy CRC 310427E0 Copy OK
No errors occurred
End of status report
[Для просмотра изображения необходимо включить JavaScript]
Дата выхода: 01/03/11
01 - Ты лети, моя душа
02 - Огонек любви
03 - Самая желанная
04 - Не любить невозможно
05 - Ивушки
06 - Сыпь, тальянка
07 - Любимая
08 - Ночка
09 - Горлинка
10 - Клен
11 - Осенний дождь
12 - Я хочу обвенчаться с тобой
13 - Соловьи
14 - А, помнишь...
15 - Закружится
16 - Выткался над озером
17 - Незнакомка
18 - Поля России
Продолжительность: 67:40
Exact Audio Copy V1.0 beta 1 from 15. November 2010
EAC extraction logfile from 2. March 2011, 22:05
Андрей Бандера / Аллея шансона. Коллекция МК
Used drive : HL-DT-STDVDRAM GT20L Adapter: 1 ID: 0
Read mode : SecureUtilize accurate stream : YesDefeat audio cache : YesMake use of C2 pointers : No
Read offset correction : 667Overread into Lead-In and Lead-Out : NoFill up missing offset samples with silence : YesDelete leading and trailing silent blocks : NoNull samples used in CRC calculations : YesUsed interface : Native Win32 interface for Win NT & 2000
Used output format : User Defined EncoderSelected bitrate : 1024 kBit/sQuality : HighAdd ID3 tag : NoCommand line compressor : C:\Program Files (x86)\Exact Audio Copy\FLAC\FLAC.EXEAdditional command line options : -8 -V %s
TOC of the extracted CD
Track | Start | Length | Start sector | End sector --------------------------------------------------------- 1 | 0:00.00 | 4:11.03 | 0 | 18827 2 | 4:11.03 | 4:50.63 | 18828 | 40640 3 | 9:01.66 | 3:54.66 | 40641 | 58256 4 | 12:56.57 | 3:01.23 | 58257 | 71854 5 | 15:58.05 | 4:09.28 | 71855 | 90557 6 | 20:07.33 | 3:21.14 | 90558 | 105646 7 | 23:28.47 | 3:54.32 | 105647 | 123228 8 | 27:23.04 | 3:25.34 | 123229 | 138637 9 | 30:48.38 | 4:53.36 | 138638 | 160648 10 | 35:41.74 | 2:58.62 | 160649 | 174060 11 | 38:40.61 | 3:52.62 | 174061 | 191522 12 | 42:33.48 | 3:36.71 | 191523 | 207793 13 | 46:10.44 | 3:21.34 | 207794 | 222902 14 | 49:32.03 | 3:15.12 | 222903 | 237539 15 | 52:47.15 | 4:05.19 | 237540 | 255933 16 | 56:52.34 | 3:38.72 | 255934 | 272355 17 | 60:31.31 | 3:20.12 | 272356 | 287367 18 | 63:51.43 | 3:48.27 | 287368 | 304494
Range status and errors
Selected range
Filename D:\Music\Аллея шансона. Коллекция МК (lossless)\CD_5 - Андрей Бандера\Андрей Бандера - Аллея шансона. Коллекция МК.wav
Peak level 98.0 % Extraction speed 0.2 X Range quality 100.0 % Test CRC 29CDC60A Copy CRC 29CDC60A Copy OK
No errors occurred
End of status report
[Для просмотра изображения необходимо включить JavaScript]
Дата выхода: 09/03/11
01 - Белый лебедь
02 - Багульник
03 - Вожатая
04 - Обыкновенная
05 - Человек в телогрейке
06 - Не уходи
07 - Колечко
08 - Заочница
09 - Цветет сирень
10 - В таверне
11 - На перроне вокзала
12 - Серое платье
13 - Пройдут года
14 - Чикаго
15 - У дороги рябина
16 - Сентиментальный детектив 1
17 - Сентиментальный детектив 2
18 - Портрет
Продолжительность: 71:10
Exact Audio Copy V1.0 beta 1 from 15. November 2010
EAC extraction logfile from 9. March 2011, 16:39
Иван Кучин / Аллея шансона. Коллекция МК
Used drive : HL-DT-STDVDRAM GT20L Adapter: 1 ID: 0
Read mode : SecureUtilize accurate stream : YesDefeat audio cache : YesMake use of C2 pointers : No
Read offset correction : 667Overread into Lead-In and Lead-Out : NoFill up missing offset samples with silence : YesDelete leading and trailing silent blocks : NoNull samples used in CRC calculations : YesUsed interface : Native Win32 interface for Win NT & 2000
Used output format : User Defined EncoderSelected bitrate : 1024 kBit/sQuality : HighAdd ID3 tag : NoCommand line compressor : C:\Program Files (x86)\Exact Audio Copy\FLAC\FLAC.EXEAdditional command line options : -8 -V %s
TOC of the extracted CD
Track | Start | Length | Start sector | End sector --------------------------------------------------------- 1 | 0:00.00 | 4:28.23 | 0 | 20122 2 | 4:28.23 | 3:47.37 | 20123 | 37184 3 | 8:15.60 | 4:11.49 | 37185 | 56058 4 | 12:27.34 | 3:44.41 | 56059 | 72899 5 | 16:12.00 | 5:20.12 | 72900 | 96911 6 | 21:32.12 | 3:32.65 | 96912 | 112876 7 | 25:05.02 | 3:27.26 | 112877 | 128427 8 | 28:32.28 | 3:34.56 | 128428 | 144533 9 | 32:07.09 | 4:12.48 | 144534 | 163481 10 | 36:19.57 | 4:21.28 | 163482 | 183084 11 | 40:41.10 | 3:36.69 | 183085 | 199353 12 | 44:18.04 | 3:47.50 | 199354 | 216428 13 | 48:05.54 | 3:40.22 | 216429 | 232950 14 | 51:46.01 | 3:38.28 | 232951 | 249328 15 | 55:24.29 | 4:47.47 | 249329 | 270900 16 | 60:12.01 | 3:31.05 | 270901 | 286730 17 | 63:43.06 | 3:31.20 | 286731 | 302575 18 | 67:14.26 | 3:56.01 | 302576 | 320276
Range status and errors
Selected range
Filename D:\Music\Аллея шансона. Коллекция МК (lossless)\CD_6 - Иван Кучин\Иван Кучин - Аллея шансона. Коллекция МК.wav
Peak level 98.2 % Extraction speed 0.1 X Range quality 99.9 % Test CRC F50BD405 Copy CRC F50BD405 Copy OK
No errors occurred
End of status report
[Для просмотра изображения необходимо включить JavaScript]
Дата выхода: 15/03/11
01 - Калина
02 - Ты не стой на моем пути
03 - Душа
04 - Клен
05 - Забыто
06 - Расскажи
07 - Радуюсь
08 - Я тобою уже не болею
09 - Мотив
10 - Где ты?
11 - Бабье лето
12 - Если бы я знала
13 - Вольный рай
14 - Вишня
15 - Протяни ладонь
16 - Ангел
17 - Последняя любовь
18 - Помоги, Боже
Продолжительность: 70:35
Exact Audio Copy V1.0 beta 1 from 15. November 2010
EAC extraction logfile from 16. March 2011, 18:14
Рада Рай / Аллея шансона. Коллекция МК
Used drive : HL-DT-STDVDRAM GT20L Adapter: 1 ID: 0
Read mode : SecureUtilize accurate stream : YesDefeat audio cache : YesMake use of C2 pointers : No
Read offset correction : 667Overread into Lead-In and Lead-Out : NoFill up missing offset samples with silence : YesDelete leading and trailing silent blocks : NoNull samples used in CRC calculations : YesUsed interface : Native Win32 interface for Win NT & 2000
Used output format : User Defined EncoderSelected bitrate : 1024 kBit/sQuality : HighAdd ID3 tag : NoCommand line compressor : C:\Program Files (x86)\Exact Audio Copy\FLAC\FLAC.EXEAdditional command line options : -8 -V %s
TOC of the extracted CD
Track | Start | Length | Start sector | End sector --------------------------------------------------------- 1 | 0:00.00 | 3:53.44 | 0 | 17518 2 | 3:53.44 | 3:31.10 | 17519 | 33353 3 | 7:24.54 | 4:15.08 | 33354 | 52486 4 | 11:39.62 | 3:19.31 | 52487 | 67442 5 | 14:59.18 | 4:16.00 | 67443 | 86642 6 | 19:15.18 | 4:00.02 | 86643 | 104644 7 | 23:15.20 | 3:32.15 | 104645 | 120559 8 | 26:47.35 | 4:12.74 | 120560 | 139533 9 | 31:00.34 | 4:09.32 | 139534 | 158240 10 | 35:09.66 | 3:40.05 | 158241 | 174745 11 | 38:49.71 | 3:52.70 | 174746 | 192215 12 | 42:42.66 | 3:50.09 | 192216 | 209474 13 | 46:33.00 | 3:58.07 | 209475 | 227331 14 | 50:31.07 | 4:40.54 | 227332 | 248385 15 | 55:11.61 | 3:29.33 | 248386 | 264093 16 | 58:41.19 | 3:45.23 | 264094 | 280991 17 | 62:26.42 | 4:11.61 | 280992 | 299877 18 | 66:38.28 | 3:56.38 | 299878 | 317615
Range status and errors
Selected range
Filename D:\Music\Аллея шансона. Коллекция МК (lossless)\CD_7 - Рада Рай\Рада Рай - Аллея шансона. Коллекция МК.wav
Peak level 97.9 % Extraction speed 0.2 X Range quality 100.0 % Test CRC 0FFE5B6F Copy CRC 0FFE5B6F Copy OK
No errors occurred
End of status report
[Для просмотра изображения необходимо включить JavaScript]
Дата выхода: 22/03/11
01 - Ну и что
02 - Рюмка водки на столе
03 - Я тебя не люблю
04 - Лабиринт
05 - Натали
06 - Крыса-ревность
07 - Танго разбитых сердец
08 - Боже, как долго
09 - Я слушал дождь
10 - Вьюга
11 - Она не твоя (дуэт со Стасом Пьехой)
12 - В городе дождь
13 - Шелест
14 - Раздумья мои
15 - Я тебе не верю (дуэт с Ириной Аллегровой)
16 - Спокойной ночи, господа
17 - Ангел завтрашнего дня (дуэт с Ириной Аллегровой)
Продолжительность: 77:30
Exact Audio Copy V1.0 beta 1 from 15. November 2010
EAC extraction logfile from 23. March 2011, 0:27
Григорий Лепс / Аллея шансона. Коллекция МК
Used drive : ASUS DRW-1814BL Adapter: 1 ID: 1
Read mode : SecureUtilize accurate stream : YesDefeat audio cache : YesMake use of C2 pointers : No
Read offset correction : 6Overread into Lead-In and Lead-Out : NoFill up missing offset samples with silence : YesDelete leading and trailing silent blocks : NoNull samples used in CRC calculations : YesUsed interface : Native Win32 interface for Win NT & 2000
Used output format : User Defined EncoderSelected bitrate : 1024 kBit/sQuality : HighAdd ID3 tag : NoCommand line compressor : C:\Program Files\Exact Audio Copy\FLAC\FLAC.EXEAdditional command line options : -8 -V %s
TOC of the extracted CD
Track | Start | Length | Start sector | End sector --------------------------------------------------------- 1 | 0:00.00 | 5:41.65 | 0 | 25639 2 | 5:41.65 | 4:26.00 | 25640 | 45589 3 | 10:07.65 | 3:14.61 | 45590 | 60200 4 | 13:22.51 | 5:07.51 | 60201 | 83276 5 | 18:30.27 | 4:53.44 | 83277 | 105295 6 | 23:23.71 | 4:14.48 | 105296 | 124393 7 | 27:38.44 | 3:48.00 | 124394 | 141493 8 | 31:26.44 | 3:37.45 | 141494 | 157813 9 | 35:04.14 | 5:33.62 | 157814 | 182850 10 | 40:38.01 | 4:42.04 | 182851 | 204004 11 | 45:20.05 | 3:40.39 | 204005 | 220543 12 | 49:00.44 | 5:34.00 | 220544 | 245593 13 | 54:34.44 | 4:05.11 | 245594 | 263979 14 | 58:39.55 | 4:16.60 | 263980 | 283239 15 | 62:56.40 | 4:04.06 | 283240 | 301545 16 | 67:00.46 | 5:35.07 | 301546 | 326677 17 | 72:35.53 | 4:55.01 | 326678 | 348803
Range status and errors
Selected range
Filename F:\Music\Аллея шансона. Коллекция МК (lossless)\CD_8 - Григорий Лепс\Григорий Лепс - Аллея шансона. Коллекция МК.wav
Peak level 100.0 % Extraction speed 0.2 X Range quality 99.9 % Test CRC 7B252A77 Copy CRC 7B252A77 Copy OK
No errors occurred
End of status report
[Для просмотра изображения необходимо включить JavaScript]
Дата выхода: 29/03/11
01 - Владимирский централ
02 - Здравствуйте
03 - Пусти меня, мама
04 - Мадам
05 - Добрая, глупая, давняя
06 - Тишина
07 - Светочка
08 - Я прошел Сибирь
09 - Ништяк, браток
10 - Все сбудется
11 - Электричка
12 - Искры в камине
13 - Жиган-Лимон
14 - Это было вчера
15 - Девочка-Пай
16 - Водочку пьем
17 - Катя
18 - Письмо маме
Продолжительность: 66:42
Exact Audio Copy V1.0 beta 1 from 15. November 2010
EAC extraction logfile from 5. April 2011, 22:27
Михаил Круг / Аллея шансона. Коллекция МК. Часть 1
Used drive : HL-DT-STDVDRAM GT20L Adapter: 1 ID: 0
Read mode : SecureUtilize accurate stream : YesDefeat audio cache : YesMake use of C2 pointers : No
Read offset correction : 667Overread into Lead-In and Lead-Out : NoFill up missing offset samples with silence : YesDelete leading and trailing silent blocks : NoNull samples used in CRC calculations : YesUsed interface : Native Win32 interface for Win NT & 2000
Used output format : User Defined EncoderSelected bitrate : 1024 kBit/sQuality : HighAdd ID3 tag : NoCommand line compressor : C:\Program Files (x86)\Exact Audio Copy\FLAC\FLAC.EXEAdditional command line options : -8 -V %s
TOC of the extracted CD
Track | Start | Length | Start sector | End sector --------------------------------------------------------- 1 | 0:00.00 | 4:28.10 | 0 | 20109 2 | 4:28.10 | 2:34.29 | 20110 | 31688 3 | 7:02.39 | 2:52.22 | 31689 | 44610 4 | 9:54.61 | 4:15.34 | 44611 | 63769 5 | 14:10.20 | 3:24.22 | 63770 | 79091 6 | 17:34.42 | 4:39.60 | 79092 | 100076 7 | 22:14.27 | 4:24.54 | 100077 | 119930 8 | 26:39.06 | 3:26.16 | 119931 | 135396 9 | 30:05.22 | 3:15.50 | 135397 | 150071 10 | 33:20.72 | 2:45.31 | 150072 | 162477 11 | 36:06.28 | 3:05.55 | 162478 | 176407 12 | 39:12.08 | 4:29.69 | 176408 | 196651 13 | 43:42.02 | 2:54.03 | 196652 | 209704 14 | 46:36.05 | 4:33.35 | 209705 | 230214 15 | 51:09.40 | 4:18.08 | 230215 | 249572 16 | 55:27.48 | 3:00.16 | 249573 | 263088 17 | 58:27.64 | 3:59.31 | 263089 | 281044 18 | 62:27.20 | 4:15.02 | 281045 | 300171
Range status and errors
Selected range
Filename D:\Music\Аллея шансона. Коллекция МК (lossless)\CD_9 - Михаил Круг. Часть_1\Михаил Круг - Аллея шансона. Коллекция МК. Часть 1.wav
Peak level 97.7 % Extraction speed 0.2 X Range quality 100.0 % Test CRC 7181DECF Copy CRC 7181DECF Copy OK
No errors occurred
End of status report
[Для просмотра изображения необходимо включить JavaScript]
Дата выхода: 05/04/11
01 - Приходите в мой дом
02 - Свобода
03 - Каторжанская цыганочка
04 - Умница
05 - Доброго пути
06 - Чай с баранками
07 - Честный вор
08 - Пацаны
09 - Магадан
10 - Белый снег
11 - Купола
12 - Ярославская
13 - Только для тебя
14 - Дорога дальняя
15 - Роза
16 - Летний день
17 - Прогулка с месяцем
18 - Постой, душа
Продолжительность: 67:28
Exact Audio Copy V1.0 beta 1 from 15. November 2010
EAC extraction logfile from 5. April 2011, 21:11
Михаил Круг / Аллея шансона. Коллекция МК. Часть 2
Used drive : HL-DT-STDVDRAM GT20L Adapter: 1 ID: 0
Read mode : SecureUtilize accurate stream : YesDefeat audio cache : YesMake use of C2 pointers : No
Read offset correction : 667Overread into Lead-In and Lead-Out : NoFill up missing offset samples with silence : YesDelete leading and trailing silent blocks : NoNull samples used in CRC calculations : YesUsed interface : Native Win32 interface for Win NT & 2000
Used output format : User Defined EncoderSelected bitrate : 1024 kBit/sQuality : HighAdd ID3 tag : NoCommand line compressor : C:\Program Files (x86)\Exact Audio Copy\FLAC\FLAC.EXEAdditional command line options : -8 -V %s
TOC of the extracted CD
Track | Start | Length | Start sector | End sector --------------------------------------------------------- 1 | 0:00.00 | 3:40.02 | 0 | 16501 2 | 3:40.02 | 3:29.14 | 16502 | 32190 3 | 7:09.16 | 5:52.56 | 32191 | 58646 4 | 13:01.72 | 3:08.56 | 58647 | 72802 5 | 16:10.53 | 2:21.48 | 72803 | 83425 6 | 18:32.26 | 3:33.66 | 83426 | 99466 7 | 22:06.17 | 3:20.58 | 99467 | 114524 8 | 25:27.00 | 3:25.02 | 114525 | 129901 9 | 28:52.02 | 4:28.30 | 129902 | 150031 10 | 33:20.32 | 3:28.07 | 150032 | 165638 11 | 36:48.39 | 5:14.56 | 165639 | 189244 12 | 42:03.20 | 3:05.46 | 189245 | 203165 13 | 45:08.66 | 3:29.03 | 203166 | 218843 14 | 48:37.69 | 3:49.14 | 218844 | 236032 15 | 52:27.08 | 4:48.59 | 236033 | 257691 16 | 57:15.67 | 2:16.68 | 257692 | 267959 17 | 59:32.60 | 3:26.20 | 267960 | 283429 18 | 62:59.05 | 4:28.47 | 283430 | 303576
Range status and errors
Selected range
Filename D:\Music\Аллея шансона. Коллекция МК (lossless)\CD_10 - Михаил Круг. Часть_2\Михаил Круг - Аллея шансона. Коллекция МК. Часть 2.wav
Peak level 97.9 % Extraction speed 0.2 X Range quality 99.9 % Test CRC 340B7378 Copy CRC 340B7378 Copy OK
No errors occurred
End of status report
[Для просмотра изображения необходимо включить JavaScript]
Дата выхода: 12/04/11
01 - Я куплю тебе дом
02 - Королева Марго
03 - Давай поженимся
04 - Молитва
05 - Птичий рынок
06 - Первая девочка
07 - Год за два
08 - Столыпинский вагон
09 - Заповедь
10 - Развод
11 - 101-й километр
12 - Ветка мимозы
13 - Соловьи
14 - Был пацан
15 - Черный ворон
16 - Дорога к тебе
17 - Голубятня
18 - Селезень
Продолжительность: 74:28
Exact Audio Copy V1.0 beta 1 from 15. November 2010
EAC extraction logfile from 12. April 2011, 21:30
Михаил Танич. Лесоповал / Аллея шансона. Коллекция МК
Used drive : HL-DT-STDVDRAM GT20L Adapter: 1 ID: 0
Read mode : SecureUtilize accurate stream : YesDefeat audio cache : YesMake use of C2 pointers : No
Read offset correction : 667Overread into Lead-In and Lead-Out : NoFill up missing offset samples with silence : YesDelete leading and trailing silent blocks : NoNull samples used in CRC calculations : YesUsed interface : Native Win32 interface for Win NT & 2000
Used output format : User Defined EncoderSelected bitrate : 1024 kBit/sQuality : HighAdd ID3 tag : NoCommand line compressor : C:\Program Files (x86)\Exact Audio Copy\FLAC\FLAC.EXEAdditional command line options : -8 -V %s
TOC of the extracted CD
Track | Start | Length | Start sector | End sector --------------------------------------------------------- 1 | 0:00.00 | 4:17.04 | 0 | 19278 2 | 4:17.04 | 4:02.23 | 19279 | 37451 3 | 8:19.27 | 3:43.36 | 37452 | 54212 4 | 12:02.63 | 4:00.15 | 54213 | 72227 5 | 16:03.03 | 5:09.73 | 72228 | 95475 6 | 21:13.01 | 4:41.13 | 95476 | 116563 7 | 25:54.14 | 4:35.40 | 116564 | 137228 8 | 30:29.54 | 3:22.49 | 137229 | 152427 9 | 33:52.28 | 3:26.25 | 152428 | 167902 10 | 37:18.53 | 5:42.49 | 167903 | 193601 11 | 43:01.27 | 3:49.43 | 193602 | 210819 12 | 46:50.70 | 3:36.14 | 210820 | 227033 13 | 50:27.09 | 4:01.27 | 227034 | 245135 14 | 54:28.36 | 4:06.52 | 245136 | 263637 15 | 58:35.13 | 4:12.55 | 263638 | 282592 16 | 62:47.68 | 3:26.70 | 282593 | 298112 17 | 66:14.63 | 3:31.73 | 298113 | 314010 18 | 69:46.61 | 4:41.73 | 314011 | 335158
Range status and errors
Selected range
Filename D:\Music\Аллея шансона. Коллекция МК (lossless)\CD_11 - Михаил Танич. Лесоповал\Михаил Танич. Лесоповал - Аллея шансона. Коллекция МК.wav
Peak level 94.4 % Extraction speed 0.1 X Range quality 100.0 % Test CRC 814AABBD Copy CRC 814AABBD Copy OK
No errors occurred
End of status report
[Для просмотра изображения необходимо включить JavaScript]
Дата выхода: 19/04/11
01 - Снегири
02 - Дальнобойная
03 - Ветер в голове
04 - Я скучаю по тебе
05 - Эх, дал бы кто взаймы
06 - Непогода
07 - Судьба
08 - Там, там, там
09 - Горько
10 - Аты-баты
11 - Налоговый инспектор
12 - Рыбалка
13 - Баллада о бабе
14 - Ой, мамочки
15 - Ода вольности
16 - Алешка
17 - Сантехник
18 - Босота, или один день Мишаниной бригады
Продолжительность: 62:55
Exact Audio Copy V1.0 beta 1 from 15. November 2010
EAC extraction logfile from 19. April 2011, 18:29
Сергей Трофимов / Аллея шансона. Коллекция МК. Часть 1
Used drive : HL-DT-STDVDRAM GT20L Adapter: 1 ID: 0
Read mode : SecureUtilize accurate stream : YesDefeat audio cache : YesMake use of C2 pointers : No
Read offset correction : 667Overread into Lead-In and Lead-Out : NoFill up missing offset samples with silence : YesDelete leading and trailing silent blocks : NoNull samples used in CRC calculations : YesUsed interface : Native Win32 interface for Win NT & 2000
Used output format : User Defined EncoderSelected bitrate : 1024 kBit/sQuality : HighAdd ID3 tag : NoCommand line compressor : C:\Program Files (x86)\Exact Audio Copy\FLAC\FLAC.EXEAdditional command line options : -8 -V %s
TOC of the extracted CD
Track | Start | Length | Start sector | End sector --------------------------------------------------------- 1 | 0:00.00 | 2:59.28 | 0 | 13452 2 | 2:59.28 | 3:14.72 | 13453 | 28074 3 | 6:14.25 | 4:13.39 | 28075 | 47088 4 | 10:27.64 | 4:27.21 | 47089 | 67134 5 | 14:55.10 | 3:46.36 | 67135 | 84120 6 | 18:41.46 | 3:25.70 | 84121 | 99565 7 | 22:07.41 | 3:28.68 | 99566 | 115233 8 | 25:36.34 | 3:53.62 | 115234 | 132770 9 | 29:30.21 | 4:26.52 | 132771 | 152772 10 | 33:56.73 | 2:06.34 | 152773 | 162256 11 | 36:03.32 | 2:52.49 | 162257 | 175205 12 | 38:56.06 | 3:04.27 | 175206 | 189032 13 | 42:00.33 | 3:01.50 | 189033 | 202657 14 | 45:02.08 | 3:30.20 | 202658 | 218427 15 | 48:32.28 | 4:03.12 | 218428 | 236664 16 | 52:35.40 | 3:21.33 | 236665 | 251772 17 | 55:56.73 | 3:22.10 | 251773 | 266932 18 | 59:19.08 | 3:35.70 | 266933 | 283127
Range status and errors
Selected range
Filename D:\Music\Аллея шансона. Коллекция МК (lossless)\CD_12 - Сергей Трофимов. Часть_1\Сергей Трофимов - Аллея шансона. Коллекция МК. Часть 1.wav
Peak level 98.9 % Extraction speed 0.2 X Range quality 100.0 % Test CRC CA413C71 Copy CRC CA413C71 Copy OK
No errors occurred
End of status report
[Для просмотра изображения необходимо включить JavaScript]
Дата выхода: 26/04/11
01 - Остров по имени "Счастье"
02 - Не рассказывай
03 - Московская песня
04 - Все не важно
05 - Город Сочи
06 - Не зря говорила тебе мама
07 - Плюшевый мишка
08 - Зима на пороге
09 - Первая любовь
10 - Ангел-хранитель
11 - Не покидай меня
12 - Весенний блюз
13 - Умничка
14 - Город в пробках
15 - Ностальгия
16 - Дождливый этюд
17 - Царство Божие
18 - Родина
Продолжительность: 69:39
Exact Audio Copy V1.0 beta 1 from 15. November 2010
EAC extraction logfile from 26. April 2011, 18:59
Сергей Трофимов / Аллея шансона. Коллекция МК. Часть 2
Used drive : HL-DT-STDVDRAM GT20L Adapter: 1 ID: 0
Read mode : SecureUtilize accurate stream : YesDefeat audio cache : YesMake use of C2 pointers : No
Read offset correction : 667Overread into Lead-In and Lead-Out : NoFill up missing offset samples with silence : YesDelete leading and trailing silent blocks : NoNull samples used in CRC calculations : YesUsed interface : Native Win32 interface for Win NT & 2000
Used output format : User Defined EncoderSelected bitrate : 1024 kBit/sQuality : HighAdd ID3 tag : NoCommand line compressor : C:\Program Files (x86)\Exact Audio Copy\FLAC\FLAC.EXEAdditional command line options : -8 -V %s
TOC of the extracted CD
Track | Start | Length | Start sector | End sector --------------------------------------------------------- 1 | 0:00.00 | 4:21.41 | 0 | 19615 2 | 4:21.41 | 3:52.69 | 19616 | 37084 3 | 8:14.35 | 3:16.61 | 37085 | 51845 4 | 11:31.21 | 3:37.51 | 51846 | 68171 5 | 15:08.72 | 3:03.36 | 68172 | 81932 6 | 18:12.33 | 3:29.19 | 81933 | 97626 7 | 21:41.52 | 3:32.70 | 97627 | 113596 8 | 25:14.47 | 4:10.60 | 113597 | 132406 9 | 29:25.32 | 4:25.57 | 132407 | 152338 10 | 33:51.14 | 3:36.50 | 152339 | 168588 11 | 37:27.64 | 4:34.17 | 168589 | 189155 12 | 42:02.06 | 3:46.35 | 189156 | 206140 13 | 45:48.41 | 3:52.52 | 206141 | 223592 14 | 49:41.18 | 3:23.40 | 223593 | 238857 15 | 53:04.58 | 4:35.24 | 238858 | 259506 16 | 57:40.07 | 4:02.39 | 259507 | 277695 17 | 61:42.46 | 4:14.30 | 277696 | 296775 18 | 65:57.01 | 3:42.01 | 296776 | 313426
Range status and errors
Selected range
Filename D:\Music\Аллея шансона. Коллекция МК (lossless)\CD_13 - Сергей Трофимов. Часть_2\Сергей Трофимов - Аллея шансона. Коллекция МК. Часть 2.wav
Peak level 94.4 % Extraction speed 0.2 X Range quality 99.9 % Test CRC C7E6105F Copy CRC C7E6105F Copy OK
No errors occurred
End of status report
[Для просмотра изображения необходимо включить JavaScript]
Дата выхода: 03/05/11
01 - Цепи
02 - Кусаю руки
03 - Неповторимая
04 - Не ругай меня, мама
05 - Марианна
06 - Малыш
07 - Ты меня позови
08 - А что цыгане делают
09 - Я тобою околдован
10 - Вези меня карета
11 - Все для тебя
12 - Бессердечная
13 - Конь мой вороной
14 - Ты мне подари судьба
15 - Любовь цыгана
16 - Дай мири
17 - Я тебя ревную
Продолжительность: 71:21

Exact Audio Copy V1.0 beta 1 from 15. November 2010
EAC extraction logfile from 3. May 2011, 19:50
Кабриолет / Аллея шансона. Коллекция МК
Used drive : HL-DT-STDVDRAM GT20L Adapter: 1 ID: 0
Read mode : SecureUtilize accurate stream : YesDefeat audio cache : YesMake use of C2 pointers : No
Read offset correction : 667Overread into Lead-In and Lead-Out : NoFill up missing offset samples with silence : YesDelete leading and trailing silent blocks : NoNull samples used in CRC calculations : YesUsed interface : Native Win32 interface for Win NT & 2000
Used output format : User Defined EncoderSelected bitrate : 1024 kBit/sQuality : HighAdd ID3 tag : NoCommand line compressor : C:\Program Files (x86)\Exact Audio Copy\FLAC\FLAC.EXEAdditional command line options : -8 -V %s
TOC of the extracted CD
Track | Start | Length | Start sector | End sector --------------------------------------------------------- 1 | 0:00.00 | 5:05.64 | 0 | 22938 2 | 5:05.64 | 4:44.31 | 22939 | 44269 3 | 9:50.20 | 5:07.20 | 44270 | 67314 4 | 14:57.40 | 4:34.01 | 67315 | 87865 5 | 19:31.41 | 4:00.33 | 87866 | 105898 6 | 23:31.74 | 4:40.55 | 105899 | 126953 7 | 28:12.54 | 3:59.19 | 126954 | 144897 8 | 32:11.73 | 3:07.61 | 144898 | 158983 9 | 35:19.59 | 5:04.18 | 158984 | 181801 10 | 40:24.02 | 4:30.01 | 181802 | 202052 11 | 44:54.03 | 3:20.30 | 202053 | 217082 12 | 48:14.33 | 4:16.09 | 217083 | 236291 13 | 52:30.42 | 4:22.29 | 236292 | 255970 14 | 56:52.71 | 4:04.30 | 255971 | 274300 15 | 60:57.26 | 3:08.48 | 274301 | 288448 16 | 64:05.74 | 4:03.73 | 288449 | 306746 17 | 68:09.72 | 3:11.22 | 306747 | 321093
Range status and errors
Selected range
Filename C:\Users\Odemwingie\Desktop\Кабриолет - Аллея шансона. Коллекция МК.wav
Peak level 98.3 % Extraction speed 0.1 X Range quality 100.0 % Test CRC 9E09F8F1 Copy CRC 9E09F8F1 Copy OK
No errors occurred
End of status report
[Для просмотра изображения необходимо включить JavaScript]
Дата выхода: 10/05/11
01 - Букет из белых роз
02 - Я не стану ждать тебя на берегу
03 - Снегири
04 - Милая
05 - Околдуй меня
06 - Замуж выходи
07 - Уходят в море корабли
08 - Красивые слова
09 - Девчонка рыжая
10 - Хулиганка
11 - Крылья
12 - Подарю тебе розы
13 - Горячий поцелуй
14 - Невеста
15 - Только с тобой
16 - Красавица
17 - Мама, не ругай
18 - Душа
Продолжительность: 67:26
Exact Audio Copy V1.0 beta 1 from 15. November 2010
EAC extraction logfile from 12. May 2011, 0:37
Виктор Королев / Аллея шансона. Коллекция МК
Used drive : HL-DT-STDVDRAM GT20L Adapter: 1 ID: 0
Read mode : SecureUtilize accurate stream : YesDefeat audio cache : YesMake use of C2 pointers : No
Read offset correction : 667Overread into Lead-In and Lead-Out : NoFill up missing offset samples with silence : YesDelete leading and trailing silent blocks : NoNull samples used in CRC calculations : YesUsed interface : Native Win32 interface for Win NT & 2000
Used output format : User Defined EncoderSelected bitrate : 1024 kBit/sQuality : HighAdd ID3 tag : NoCommand line compressor : C:\Program Files (x86)\Exact Audio Copy\FLAC\FLAC.EXEAdditional command line options : -8 -V %s
TOC of the extracted CD
Track | Start | Length | Start sector | End sector --------------------------------------------------------- 1 | 0:00.00 | 4:05.02 | 0 | 18376 2 | 4:05.02 | 4:14.70 | 18377 | 37496 3 | 8:19.72 | 3:26.27 | 37497 | 52973 4 | 11:46.24 | 3:47.64 | 52974 | 70062 5 | 15:34.13 | 4:13.17 | 70063 | 89054 6 | 19:47.30 | 3:49.66 | 89055 | 106295 7 | 23:37.21 | 3:01.13 | 106296 | 119883 8 | 26:38.34 | 3:22.12 | 119884 | 135045 9 | 30:00.46 | 3:18.18 | 135046 | 149913 10 | 33:18.64 | 3:57.24 | 149914 | 167712 11 | 37:16.13 | 4:02.64 | 167713 | 185926 12 | 41:19.02 | 4:07.32 | 185927 | 204483 13 | 45:26.34 | 3:36.09 | 204484 | 220692 14 | 49:02.43 | 4:11.19 | 220693 | 239536 15 | 53:13.62 | 3:40.19 | 239537 | 256055 16 | 56:54.06 | 3:06.51 | 256056 | 270056 17 | 60:00.57 | 3:48.12 | 270057 | 287168 18 | 63:48.69 | 3:37.55 | 287169 | 303498
Range status and errors
Selected range
Filename C:\Users\Odemwingie\Desktop\Виктор Королев - Аллея шансона. Коллекция МК.wav
Peak level 100.0 % Extraction speed 0.1 X Range quality 100.0 % Test CRC D5DB27C3 Copy CRC D5DB27C3 Copy OK
No errors occurred
End of status report
[Для просмотра изображения необходимо включить JavaScript]
Дата выхода: 17/05/11
01 - Брато
02 - Эх, цыганка
03 - Таганка
04 - Ты люби меня, люби
05 - Бутылка вина
06 - Я поеду на юг
07 - Доля шоферская
08 - Соло
09 - Обожаю
10 - Марджанджа
11 - Наколочка
12 - Левый берег Дона
13 - Шарада-ночь
14 - Пропажа
15 - Отец
16 - Улетайте вороны
17 - Тополя
18 - Москва - Владивосток
19 - От пункта Я до пункта Ты
20 - Капля теплоты
Продолжительность: 73:19
Exact Audio Copy V1.0 beta 1 from 15. November 2010
EAC extraction logfile from 21. May 2011, 0:47
Михаил Шуфутинский / Аллея шансона. Коллекция МК
Used drive : SONY DVD RW DW-Q28A Adapter: 1 ID: 1
Read mode : SecureUtilize accurate stream : YesDefeat audio cache : YesMake use of C2 pointers : No
Read offset correction : 12Overread into Lead-In and Lead-Out : NoFill up missing offset samples with silence : YesDelete leading and trailing silent blocks : NoNull samples used in CRC calculations : YesUsed interface : Native Win32 interface for Win NT & 2000
Used output format : User Defined EncoderSelected bitrate : 1024 kBit/sQuality : HighAdd ID3 tag : NoCommand line compressor : C:\Program Files (x86)\Exact Audio Copy\FLAC\FLAC.EXEAdditional command line options : -8 -V %s
TOC of the extracted CD
Track | Start | Length | Start sector | End sector --------------------------------------------------------- 1 | 0:00.00 | 3:17.53 | 0 | 14827 2 | 3:17.53 | 2:46.34 | 14828 | 27311 3 | 6:04.12 | 3:51.43 | 27312 | 44679 4 | 9:55.55 | 4:24.29 | 44680 | 64508 5 | 14:20.09 | 3:27.31 | 64509 | 80064 6 | 17:47.40 | 4:46.14 | 80065 | 101528 7 | 22:33.54 | 4:05.61 | 101529 | 119964 8 | 26:39.40 | 4:03.09 | 119965 | 138198 9 | 30:42.49 | 3:13.18 | 138199 | 152691 10 | 33:55.67 | 3:19.39 | 152692 | 167655 11 | 37:15.31 | 3:56.11 | 167656 | 185366 12 | 41:11.42 | 3:59.28 | 185367 | 203319 13 | 45:10.70 | 3:29.18 | 203320 | 219012 14 | 48:40.13 | 3:43.19 | 219013 | 235756 15 | 52:23.32 | 3:22.09 | 235757 | 250915 16 | 55:45.41 | 3:40.42 | 250916 | 267457 17 | 59:26.08 | 3:45.53 | 267458 | 284385 18 | 63:11.61 | 3:08.65 | 284386 | 298550 19 | 66:20.51 | 3:13.56 | 298551 | 313081 20 | 69:34.32 | 3:53.10 | 313082 | 330566
Range status and errors
Selected range
Filename C:\Users\Public\Михаил Шуфутинский - Аллея шансона. Коллекция МК.wav
Peak level 98.0 % Extraction speed 0.1 X Range quality 100.0 % Test CRC 830FA6E5 Copy CRC 830FA6E5 Copy OK
No errors occurred
End of status report
[Для просмотра изображения необходимо включить JavaScript]
Дата выхода: 24/05/11
01 - Молодая
02 - Аленка
03 - Поход
04 - Любимая моя
05 - Саксофон
06 - Надым
07 - Только не ты
08 - Последний менестрель
09 - Каким меня ты ядом напоила
10 - Дом на колесах
11 - Цвет ночного неба между звезд
12 - Брожу-гуляю
13 - Искры в камине
14 - Судьба
15 - Соловей и роза
16 - Замок коварства и любви
17 - Камелия
18 - Рано или поздно
Продолжительность: 64:44
Exact Audio Copy V1.0 beta 1 from 15. November 2010
EAC extraction logfile from 24. May 2011, 23:43
Ефрем Амирамов / Аллея шансона. Коллекция МК
Used drive : HL-DT-STDVDRAM GT20L Adapter: 1 ID: 0
Read mode : SecureUtilize accurate stream : YesDefeat audio cache : YesMake use of C2 pointers : No
Read offset correction : 667Overread into Lead-In and Lead-Out : NoFill up missing offset samples with silence : YesDelete leading and trailing silent blocks : NoNull samples used in CRC calculations : YesUsed interface : Native Win32 interface for Win NT & 2000
Used output format : User Defined EncoderSelected bitrate : 1024 kBit/sQuality : HighAdd ID3 tag : NoCommand line compressor : C:\Program Files (x86)\Exact Audio Copy\FLAC\FLAC.EXEAdditional command line options : -8 -V %s
TOC of the extracted CD
Track | Start | Length | Start sector | End sector --------------------------------------------------------- 1 | 0:00.00 | 4:30.66 | 0 | 20315 2 | 4:30.66 | 3:52.29 | 20316 | 37744 3 | 8:23.20 | 4:31.04 | 37745 | 58073 4 | 12:54.24 | 4:00.47 | 58074 | 76120 5 | 16:54.71 | 2:08.03 | 76121 | 85723 6 | 19:02.74 | 1:26.53 | 85724 | 92226 7 | 20:29.52 | 3:51.36 | 92227 | 109587 8 | 24:21.13 | 3:06.37 | 109588 | 123574 9 | 27:27.50 | 4:08.34 | 123575 | 142208 10 | 31:36.09 | 3:25.69 | 142209 | 157652 11 | 35:02.03 | 3:47.29 | 157653 | 174706 12 | 38:49.32 | 2:50.58 | 174707 | 187514 13 | 41:40.15 | 3:23.23 | 187515 | 202762 14 | 45:03.38 | 4:24.35 | 202763 | 222597 15 | 49:27.73 | 3:54.73 | 222598 | 240220 16 | 53:22.71 | 3:50.20 | 240221 | 257490 17 | 57:13.16 | 3:38.12 | 257491 | 273852 18 | 60:51.28 | 3:54.35 | 273853 | 291437
Range status and errors
Selected range
Filename C:\Users\Odemwingie\Desktop\Ефрем Амирамов - Аллея шансона. Коллекция МК.wav
Peak level 97.7 % Extraction speed 0.1 X Range quality 99.9 % Test CRC 31786F48 Copy CRC 31786F48 Copy OK
No errors occurred
End of status report
[Для просмотра изображения необходимо включить JavaScript]
Дата выхода: 31/05/11
01 - Дорожный роман
02 - Алюминиевый крестик
03 - Я ревную тебя
04 - Зацелую, залюблю
05 - Далеко-далеко
06 - Глупенький
07 - Подруженька
08 - Здравствуй, любовь
09 - Хакинск
10 - Лейтенантик
11 - Я зажгу для тебя огонек
12 - Скажи, что ты любишь
13 - Вино любви
14 - Дочка
15 - Я не могу без него
16 - А я пою
17 - В сердце моем
18 - Северная ночь
Продолжительность: 73:28
Exact Audio Copy V1.0 beta 1 from 15. November 2010
EAC extraction logfile from 2. June 2011, 19:27
Катя Огонек / Аллея шансона. Коллекция МК
Used drive : HL-DT-STDVDRAM GT20L Adapter: 1 ID: 0
Read mode : SecureUtilize accurate stream : YesDefeat audio cache : YesMake use of C2 pointers : No
Read offset correction : 667Overread into Lead-In and Lead-Out : NoFill up missing offset samples with silence : YesDelete leading and trailing silent blocks : NoNull samples used in CRC calculations : YesUsed interface : Native Win32 interface for Win NT & 2000
Used output format : User Defined EncoderSelected bitrate : 1024 kBit/sQuality : HighAdd ID3 tag : NoCommand line compressor : C:\Program Files (x86)\Exact Audio Copy\FLAC\FLAC.EXEAdditional command line options : -8 -V %s
TOC of the extracted CD
Track | Start | Length | Start sector | End sector --------------------------------------------------------- 1 | 0:00.00 | 5:31.59 | 0 | 24883 2 | 5:31.59 | 3:52.13 | 24884 | 42296 3 | 9:23.72 | 4:40.21 | 42297 | 63317 4 | 14:04.18 | 2:55.19 | 63318 | 76461 5 | 16:59.37 | 3:13.49 | 76462 | 90985 6 | 20:13.11 | 3:26.50 | 90986 | 106485 7 | 23:39.61 | 3:43.04 | 106486 | 123214 8 | 27:22.65 | 5:02.70 | 123215 | 145934 9 | 32:25.60 | 5:04.33 | 145935 | 168767 10 | 37:30.18 | 4:26.56 | 168768 | 188773 11 | 41:56.74 | 3:32.49 | 188774 | 204722 12 | 45:29.48 | 4:45.50 | 204723 | 226147 13 | 50:15.23 | 4:02.70 | 226148 | 244367 14 | 54:18.18 | 3:21.71 | 244368 | 259513 15 | 57:40.14 | 3:26.66 | 259514 | 275029 16 | 61:07.05 | 3:29.71 | 275030 | 290775 17 | 64:37.01 | 4:31.71 | 290776 | 311171 18 | 69:08.72 | 4:19.45 | 311172 | 330641
Range status and errors
Selected range
Filename C:\Users\Odemwingie\Desktop\Катя Огонек - Аллея шансона. Коллекция МК.wav
Peak level 97.9 % Extraction speed 0.1 X Range quality 100.0 % Test CRC 4BCDE7F1 Copy CRC 4BCDE7F1 Copy OK
No errors occurred
End of status report
[Для просмотра изображения необходимо включить JavaScript]
Дата выхода: 07/06/11
01 - Вези меня, извозчик
02 - Город древний
03 - В Екатеринбурге
04 - Улица Восточная
05 - Я вышел родом
06 - Папиросники
07 - Пускай ты выпита другим
08 - Пой же, пой
09 - Голубая кофта, синие глаза
10 - Екатеринблюз
11 - Пять минут ходьбы
12 - А в Париже
13 - Луали
14 - Помнишь, девочка?
15 - 20 лет
16 - Уличная красотка
17 - Шансоньетка
18 - Крошка
Продолжительность: 71:29
Exact Audio Copy V1.0 beta 1 from 15. November 2010
EAC extraction logfile from 9. June 2011, 17:15
Александр Новиков / Аллея шансона. Коллекция МК
Used drive : HL-DT-STDVDRAM GT20L Adapter: 1 ID: 0
Read mode : SecureUtilize accurate stream : YesDefeat audio cache : YesMake use of C2 pointers : No
Read offset correction : 667Overread into Lead-In and Lead-Out : NoFill up missing offset samples with silence : YesDelete leading and trailing silent blocks : NoNull samples used in CRC calculations : YesUsed interface : Native Win32 interface for Win NT & 2000
Used output format : User Defined EncoderSelected bitrate : 1024 kBit/sQuality : HighAdd ID3 tag : NoCommand line compressor : C:\Program Files (x86)\Exact Audio Copy\FLAC\FLAC.EXEAdditional command line options : -8 -V %s
TOC of the extracted CD
Track | Start | Length | Start sector | End sector --------------------------------------------------------- 1 | 0:00.00 | 4:36.60 | 0 | 20759 2 | 4:36.60 | 4:01.45 | 20760 | 38879 3 | 8:38.30 | 3:02.39 | 38880 | 52568 4 | 11:40.69 | 4:20.30 | 52569 | 72098 5 | 16:01.24 | 3:51.07 | 72099 | 89430 6 | 19:52.31 | 2:44.30 | 89431 | 101760 7 | 22:36.61 | 4:05.66 | 101761 | 120201 8 | 26:42.52 | 4:27.70 | 120202 | 140296 9 | 31:10.47 | 2:25.64 | 140297 | 151235 10 | 33:36.36 | 5:27.45 | 151236 | 175805 11 | 39:04.06 | 3:34.26 | 175806 | 191881 12 | 42:38.32 | 4:48.15 | 191882 | 213496 13 | 47:26.47 | 3:37.52 | 213497 | 229823 14 | 51:04.24 | 3:52.14 | 229824 | 247237 15 | 54:56.38 | 4:11.53 | 247238 | 266115 16 | 59:08.16 | 3:38.65 | 266116 | 282530 17 | 62:47.06 | 4:28.15 | 282531 | 302645 18 | 67:15.21 | 4:14.13 | 302646 | 321708
Range status and errors
Selected range
Filename C:\Users\Odemwingie\Desktop\Александр Новиков - Аллея шансона. Коллекция МК.wav
Peak level 100.0 % Extraction speed 0.1 X Range quality 100.0 % Test CRC A38BDB67 Copy CRC A38BDB67 Copy OK
No errors occurred
End of status report
[Для просмотра изображения необходимо включить JavaScript]
Дата выхода: 14/06/11
01 - Небеса
02 - Запахло весной
03 - Тает снег
04 - Весточка
05 - Слезы осени
06 - Не крутите глобус
07 - Икона
08 - Не трогай осень
09 - Два полюса
10 - Девчонка с центра
11 - Последний рассвет
12 - Парад осени
13 - Сероглазая шалунья
14 - А для вас я никто
15 - Не мучь меня
16 - Мама
17 - Тебя ждут
18 - Бандероль
Продолжительность: 77:58
Exact Audio Copy V1.0 beta 1 from 15. November 2010
EAC extraction logfile from 16. June 2011, 10:15
Бутырка / Аллея шансона. Коллекция МК
Used drive : HL-DT-STDVDRAM GT20L Adapter: 1 ID: 0
Read mode : SecureUtilize accurate stream : YesDefeat audio cache : YesMake use of C2 pointers : No
Read offset correction : 667Overread into Lead-In and Lead-Out : NoFill up missing offset samples with silence : YesDelete leading and trailing silent blocks : NoNull samples used in CRC calculations : YesUsed interface : Native Win32 interface for Win NT & 2000
Used output format : User Defined EncoderSelected bitrate : 1024 kBit/sQuality : HighAdd ID3 tag : NoCommand line compressor : C:\Program Files (x86)\Exact Audio Copy\FLAC\FLAC.EXEAdditional command line options : -8 -V %s
TOC of the extracted CD
Track | Start | Length | Start sector | End sector --------------------------------------------------------- 1 | 0:00.00 | 5:54.25 | 0 | 26574 2 | 5:54.25 | 4:10.34 | 26575 | 45358 3 | 10:04.59 | 3:40.64 | 45359 | 61922 4 | 13:45.48 | 5:31.03 | 61923 | 86750 5 | 19:16.51 | 4:30.30 | 86751 | 107030 6 | 23:47.06 | 5:01.40 | 107031 | 129645 7 | 28:48.46 | 4:00.08 | 129646 | 147653 8 | 32:48.54 | 5:46.55 | 147654 | 173658 9 | 38:35.34 | 5:32.33 | 173659 | 198591 10 | 44:07.67 | 3:47.59 | 198592 | 215675 11 | 47:55.51 | 4:19.27 | 215676 | 235127 12 | 52:15.03 | 3:35.21 | 235128 | 251273 13 | 55:50.24 | 3:00.53 | 251274 | 264826 14 | 58:51.02 | 3:36.04 | 264827 | 281030 15 | 62:27.06 | 3:04.21 | 281031 | 294851 16 | 65:31.27 | 4:54.46 | 294852 | 316947 17 | 70:25.73 | 4:16.46 | 316948 | 336193 18 | 74:42.44 | 3:15.44 | 336194 | 350862
Range status and errors
Selected range
Filename D:\Music\Аллея шансона. Коллекция МК (lossless)\CD_20 - Бутырка\Бутырка - Аллея шансона. Коллекция МК.wav
Peak level 99.2 % Extraction speed 0.1 X Range quality 100.0 % Test CRC F8C0009F Copy CRC F8C0009F Copy OK
No errors occurred
End of status report
[Для просмотра изображения необходимо включить JavaScript]
Дата выхода: 21/06/11
01 - Приходите в мой дом
02 - Давай, гармонь
03 - Мариманы
04 - Раскатились жемчуга
05 - Доставай гитару
06 - Любовь
07 - Дорогой длинною
08 - Июль
09 - Антоновка
10 - Москва златоглавая
11 - Веселись, Русь..!
12 - Альтаир
13 - Отцвели хризантемы
14 - Лето кончилось
15 - Сверчки
16 - Время
17 - Я ехала домой
18 - Накрыла осень
Продолжительность: 63:25
Exact Audio Copy V1.0 beta 1 from 15. November 2010
EAC extraction logfile from 23. June 2011, 0:11
Вика Цыганова / Аллея шансона. Коллекция МК
Used drive : HL-DT-STDVDRAM GT20L Adapter: 1 ID: 0
Read mode : SecureUtilize accurate stream : YesDefeat audio cache : YesMake use of C2 pointers : No
Read offset correction : 667Overread into Lead-In and Lead-Out : NoFill up missing offset samples with silence : YesDelete leading and trailing silent blocks : NoNull samples used in CRC calculations : YesUsed interface : Native Win32 interface for Win NT & 2000
Used output format : User Defined EncoderSelected bitrate : 1024 kBit/sQuality : HighAdd ID3 tag : NoCommand line compressor : C:\Program Files (x86)\Exact Audio Copy\FLAC\FLAC.EXEAdditional command line options : -8 -V %s
TOC of the extracted CD
Track | Start | Length | Start sector | End sector --------------------------------------------------------- 1 | 0:00.00 | 3:32.02 | 0 | 15901 2 | 3:32.02 | 3:28.11 | 15902 | 31512 3 | 7:00.13 | 4:00.08 | 31513 | 49520 4 | 11:00.21 | 3:54.37 | 49521 | 67107 5 | 14:54.58 | 3:56.45 | 67108 | 84852 6 | 18:51.28 | 3:44.63 | 84853 | 101715 7 | 22:36.16 | 3:29.17 | 101716 | 117407 8 | 26:05.33 | 3:51.08 | 117408 | 134740 9 | 29:56.41 | 3:18.68 | 134741 | 149658 10 | 33:15.34 | 2:57.27 | 149659 | 162960 11 | 36:12.61 | 3:00.62 | 162961 | 176522 12 | 39:13.48 | 3:49.23 | 176523 | 193720 13 | 43:02.71 | 2:42.65 | 193721 | 205935 14 | 45:45.61 | 3:30.23 | 205936 | 221708 15 | 49:16.09 | 4:08.48 | 221709 | 240356 16 | 53:24.57 | 4:11.33 | 240357 | 259214 17 | 57:36.15 | 2:24.01 | 259215 | 270015 18 | 60:00.16 | 3:24.72 | 270016 | 285387
Range status and errors
Selected range
Filename D:\Music\Аллея шансона. Коллекция МК (lossless)\CD_21 - Вика Цыганова\Вика Цыганова - Аллея шансона. Коллекция МК.wav
Peak level 98.7 % Extraction speed 0.2 X Range quality 100.0 % Test CRC 4B1FD826 Copy CRC 4B1FD826 Copy OK
No errors occurred
End of status report
[Для просмотра изображения необходимо включить JavaScript]
Дата выхода: 28/06/11
01 - Встретились глаза
02 - Вернись из августа ко мне
03 - Моя королева
04 - Колыбельная сыну
05 - Напиши мне
06 - Господа
07 - Я все уже пережила
08 - Здравствуй
09 - Неужели любовь обман
10 - Без тебя
11 - Воспоминания
12 - Пусть сейчас я плачу
13 - Боль о тебе
14 - Я тебя люблю
15 - Две странички
16 - Букет из белых роз
17 - Я прочитаю в глазах твоих
18 - В плену твоих рук
Продолжительность: 68:21
Exact Audio Copy V1.0 beta 1 from 15. November 2010
EAC extraction logfile from 28. June 2011, 21:05
Ирина Круг / Аллея шансона. Коллекция МК
Used drive : HL-DT-STDVDRAM GT20L Adapter: 1 ID: 0
Read mode : SecureUtilize accurate stream : YesDefeat audio cache : YesMake use of C2 pointers : No
Read offset correction : 667Overread into Lead-In and Lead-Out : NoFill up missing offset samples with silence : YesDelete leading and trailing silent blocks : NoNull samples used in CRC calculations : YesUsed interface : Native Win32 interface for Win NT & 2000
Used output format : User Defined EncoderSelected bitrate : 1024 kBit/sQuality : HighAdd ID3 tag : NoCommand line compressor : C:\Program Files (x86)\Exact Audio Copy\FLAC\FLAC.EXEAdditional command line options : -8 -V %s
TOC of the extracted CD
Track | Start | Length | Start sector | End sector --------------------------------------------------------- 1 | 0:00.00 | 2:29.64 | 0 | 11238 2 | 2:29.64 | 3:36.37 | 11239 | 27475 3 | 6:06.26 | 3:52.04 | 27476 | 44879 4 | 9:58.30 | 3:18.10 | 44880 | 59739 5 | 13:16.40 | 3:46.23 | 59740 | 76712 6 | 17:02.63 | 3:21.43 | 76713 | 91830 7 | 20:24.31 | 4:53.04 | 91831 | 113809 8 | 25:17.35 | 3:31.29 | 113810 | 129663 9 | 28:48.64 | 4:05.66 | 129664 | 148104 10 | 32:54.55 | 3:25.50 | 148105 | 163529 11 | 36:20.30 | 4:39.19 | 163530 | 184473 12 | 40:59.49 | 3:41.73 | 184474 | 201121 13 | 44:41.47 | 3:59.73 | 201122 | 219119 14 | 48:41.45 | 4:25.71 | 219120 | 239065 15 | 53:07.41 | 3:47.34 | 239066 | 256124 16 | 56:55.00 | 4:04.64 | 256125 | 274488 17 | 60:59.64 | 3:35.55 | 274489 | 290668 18 | 64:35.44 | 3:45.36 | 290669 | 307579
Range status and errors
Selected range
Filename D:\Music\Аллея шансона. Коллекция МК (lossless)\CD_22 - Ирина Круг\Ирина Круг - Аллея шансона. Коллекция МК.wav
Peak level 97.9 % Extraction speed 0.1 X Range quality 100.0 % Test CRC 22C3824B Copy CRC 22C3824B Copy OK
No errors occurred
End of status report
[Для просмотра изображения необходимо включить JavaScript]
Дата выхода: 05/07/11
01 - Кукушка
02 - Когда не нужно лишних слов
03 - Играет Дассен
04 - Дорога в никуда
05 - Золотко
06 - Я, как осенний лист
07 - Звон серебряный
08 - Баллада о первом встречном
09 - Глаза бедовые
10 - Рюмка водки на столе
11 - Сказочный лес
12 - Прости
13 - Лена
14 - Остывший чай
15 - Уйду к цыганам
16 - Одинаковые сны
17 - Гололед
18 - Плавно падает снег
Продолжительность: 78:36
Exact Audio Copy V1.0 beta 1 from 15. November 2010
EAC extraction logfile from 5. July 2011, 22:58
Жека / Аллея шансона. Коллекция МК
Used drive : HL-DT-STDVDRAM GT20L Adapter: 1 ID: 0
Read mode : SecureUtilize accurate stream : YesDefeat audio cache : YesMake use of C2 pointers : No
Read offset correction : 667Overread into Lead-In and Lead-Out : NoFill up missing offset samples with silence : YesDelete leading and trailing silent blocks : NoNull samples used in CRC calculations : YesUsed interface : Native Win32 interface for Win NT & 2000
Used output format : User Defined EncoderSelected bitrate : 1024 kBit/sQuality : HighAdd ID3 tag : NoCommand line compressor : C:\Program Files (x86)\Exact Audio Copy\FLAC\FLAC.EXEAdditional command line options : -8 -V %s
TOC of the extracted CD
Track | Start | Length | Start sector | End sector --------------------------------------------------------- 1 | 0:00.00 | 4:53.24 | 0 | 21998 2 | 4:53.24 | 4:03.51 | 21999 | 40274 3 | 8:57.00 | 4:16.31 | 40275 | 59505 4 | 13:13.31 | 4:04.46 | 59506 | 77851 5 | 17:18.02 | 4:40.52 | 77852 | 98903 6 | 21:58.54 | 4:38.37 | 98904 | 119790 7 | 26:37.16 | 4:32.08 | 119791 | 140198 8 | 31:09.24 | 4:35.62 | 140199 | 160885 9 | 35:45.11 | 4:18.73 | 160886 | 180308 10 | 40:04.09 | 4:31.11 | 180309 | 200644 11 | 44:35.20 | 3:50.66 | 200645 | 217960 12 | 48:26.11 | 4:55.53 | 217961 | 240138 13 | 53:21.64 | 3:48.73 | 240139 | 257311 14 | 57:10.62 | 4:45.71 | 257312 | 278757 15 | 61:56.58 | 4:19.22 | 278758 | 298204 16 | 66:16.05 | 4:18.15 | 298205 | 317569 17 | 70:34.20 | 3:47.27 | 317570 | 334621 18 | 74:21.47 | 4:14.54 | 334622 | 353725
Range status and errors
Selected range
Filename D:\Music\Аллея шансона. Коллекция МК (lossless)\CD_23 - Жека\Жека - Аллея шансона. Коллекция МК.wav
Peak level 99.9 % Extraction speed 0.2 X Range quality 100.0 % Test CRC 86F65969 Copy CRC 86F65969 Copy OK
No errors occurred
End of status report
[Для просмотра изображения необходимо включить JavaScript]
Дата выхода: 12/07/11
01 - Белый пепел
02 - Третий пост
03 - Батя
04 - Летят журавли
05 - До свидания, полк
06 - Уходят близкие
07 - Снежный вальс
08 - Вожак
09 - Колыма-мама
10 - Снайпер
11 - Спасибо тебе
12 - Медаль
13 - Горец
14 - Резня
15 - Неотправленное письмо
16 - Серебрится рассвет
17 - Не забыть
18 - Будем жить
Продолжительность: 74:41
Exact Audio Copy V1.0 beta 1 from 15. November 2010
EAC extraction logfile from 12. July 2011, 22:41
Александр Маршал / Аллея шансона. Коллекция МК
Used drive : HL-DT-STDVDRAM GT20L Adapter: 1 ID: 0
Read mode : SecureUtilize accurate stream : YesDefeat audio cache : YesMake use of C2 pointers : No
Read offset correction : 667Overread into Lead-In and Lead-Out : NoFill up missing offset samples with silence : YesDelete leading and trailing silent blocks : NoNull samples used in CRC calculations : YesUsed interface : Native Win32 interface for Win NT & 2000
Used output format : User Defined EncoderSelected bitrate : 1024 kBit/sQuality : HighAdd ID3 tag : NoCommand line compressor : C:\Program Files (x86)\Exact Audio Copy\FLAC\FLAC.EXEAdditional command line options : -8 -V %s
TOC of the extracted CD
Track | Start | Length | Start sector | End sector --------------------------------------------------------- 1 | 0:00.00 | 5:39.44 | 0 | 25468 2 | 5:39.44 | 5:09.57 | 25469 | 48700 3 | 10:49.26 | 4:53.73 | 48701 | 70748 4 | 15:43.24 | 4:28.48 | 70749 | 90896 5 | 20:11.72 | 4:02.69 | 90897 | 109115 6 | 24:14.66 | 3:29.37 | 109116 | 124827 7 | 27:44.28 | 3:38.05 | 124828 | 141182 8 | 31:22.33 | 4:20.68 | 141183 | 160750 9 | 35:43.26 | 3:26.04 | 160751 | 176204 10 | 39:09.30 | 4:03.19 | 176205 | 194448 11 | 43:12.49 | 3:30.54 | 194449 | 210252 12 | 46:43.28 | 2:00.16 | 210253 | 219268 13 | 48:43.44 | 3:35.67 | 219269 | 235460 14 | 52:19.36 | 4:41.44 | 235461 | 256579 15 | 57:01.05 | 4:34.16 | 256580 | 277145 16 | 61:35.21 | 4:46.22 | 277146 | 298617 17 | 66:21.43 | 4:47.07 | 298618 | 320149 18 | 71:08.50 | 3:32.07 | 320150 | 336056
Range status and errors
Selected range
Filename D:\Music\Аллея шансона. Коллекция МК (lossless)\CD_24 - Александр Маршал\Александр Маршал - Аллея шансона. Коллекция МК.wav
Peak level 97.2 % Extraction speed 0.2 X Range quality 100.0 % Test CRC A711E60D Copy CRC A711E60D Copy OK
No errors occurred
End of status report
[Для просмотра изображения необходимо включить JavaScript]
Дата выхода: 19/07/11
01 - Дори-дори
02 - Этап
03 - Потерянный край
04 - Разбитая судьба
05 - До свидания, кореша
06 - Белый снег
07 - Любимой посвящается
08 - На суде
09 - На привокзальной площади
10 - Золотистые денечки
11 - Маячок
12 - Железнодорожники
13 - Осень
14 - Первомай
15 - Снег растает
16 - Городские встречи
17 - Кабакам - кабачный дым
Продолжительность: 79:57
Exact Audio Copy V1.0 beta 1 from 15. November 2010
EAC extraction logfile from 20. July 2011, 0:55
Сергей Наговицын / Аллея шансона. Коллекция МК
Used drive : HL-DT-STDVDRAM GT20L Adapter: 1 ID: 0
Read mode : SecureUtilize accurate stream : YesDefeat audio cache : YesMake use of C2 pointers : No
Read offset correction : 667Overread into Lead-In and Lead-Out : NoFill up missing offset samples with silence : YesDelete leading and trailing silent blocks : NoNull samples used in CRC calculations : YesUsed interface : Native Win32 interface for Win NT & 2000
Used output format : User Defined EncoderSelected bitrate : 1024 kBit/sQuality : HighAdd ID3 tag : NoCommand line compressor : C:\Program Files (x86)\Exact Audio Copy\FLAC\FLAC.EXEAdditional command line options : -8 -V %s
TOC of the extracted CD
Track | Start | Length | Start sector | End sector --------------------------------------------------------- 1 | 0:00.00 | 3:34.12 | 0 | 16061 2 | 3:34.12 | 4:53.36 | 16062 | 38072 3 | 8:27.48 | 6:54.51 | 38073 | 69173 4 | 15:22.24 | 6:07.09 | 69174 | 96707 5 | 21:29.33 | 5:10.02 | 96708 | 119959 6 | 26:39.35 | 5:33.06 | 119960 | 144940 7 | 32:12.41 | 5:29.35 | 144941 | 169650 8 | 37:42.01 | 6:25.65 | 169651 | 198590 9 | 44:07.66 | 3:17.23 | 198591 | 213388 10 | 47:25.14 | 3:23.69 | 213389 | 228682 11 | 50:49.08 | 4:37.71 | 228683 | 249528 12 | 55:27.04 | 3:36.28 | 249529 | 265756 13 | 59:03.32 | 5:31.54 | 265757 | 290635 14 | 64:35.11 | 3:59.13 | 290636 | 308573 15 | 68:34.24 | 2:45.37 | 308574 | 320985 16 | 71:19.61 | 4:04.37 | 320986 | 339322 17 | 75:24.23 | 4:33.17 | 339323 | 359814
Range status and errors
Selected range
Filename D:\Music\Аллея шансона. Коллекция МК (lossless)\CD_25 - Сергей Наговицын\Сергей Наговицын - Аллея шансона. Коллекция МК.wav
Peak level 98.6 % Extraction speed 0.2 X Range quality 100.0 % Test CRC 31559431 Copy CRC 31559431 Copy OK
No errors occurred
End of status report
[Для просмотра изображения необходимо включить JavaScript]
Дата выхода: 26/07/11
01 - Вечная любовь
02 - Оранжевое солнце
03 - Я возвращаюсь домой
04 - 48 часов
05 - Комната на краю земли
06 - Антишок
07 - Время-наркотик
08 - Выше неба
09 - Осторожно... любовь
10 - Пуля
11 - Ничего не жаль
12 - Я богат
13 - Дом
14 - Молодым умирать не страшно
15 - Арендованный мир
16 - Дай мне огонь
17 - Растают следы...
18 - Я верю в любовь
Продолжительность: 74:34
Exact Audio Copy V1.0 beta 1 from 15. November 2010
EAC extraction logfile from 27. July 2011, 21:36
Денис Майданов / Аллея шансона. Коллекция МК
Used drive : HL-DT-STDVDRAM GT20L Adapter: 1 ID: 0
Read mode : SecureUtilize accurate stream : YesDefeat audio cache : YesMake use of C2 pointers : No
Read offset correction : 667Overread into Lead-In and Lead-Out : NoFill up missing offset samples with silence : YesDelete leading and trailing silent blocks : NoNull samples used in CRC calculations : YesUsed interface : Native Win32 interface for Win NT & 2000
Used output format : User Defined EncoderSelected bitrate : 1024 kBit/sQuality : HighAdd ID3 tag : NoCommand line compressor : C:\Program Files (x86)\Exact Audio Copy\FLAC\FLAC.EXEAdditional command line options : -8 -V %s
TOC of the extracted CD
Track | Start | Length | Start sector | End sector --------------------------------------------------------- 1 | 0:00.00 | 3:30.68 | 0 | 15817 2 | 3:30.68 | 4:30.08 | 15818 | 36075 3 | 8:01.01 | 4:16.57 | 36076 | 55332 4 | 12:17.58 | 3:38.11 | 55333 | 71693 5 | 15:55.69 | 3:52.36 | 71694 | 89129 6 | 19:48.30 | 3:16.31 | 89130 | 103860 7 | 23:04.61 | 4:16.28 | 103861 | 123088 8 | 27:21.14 | 4:11.12 | 123089 | 141925 9 | 31:32.26 | 4:34.24 | 141926 | 162499 10 | 36:06.50 | 4:26.62 | 162500 | 182511 11 | 40:33.37 | 3:46.41 | 182512 | 199502 12 | 44:20.03 | 3:51.02 | 199503 | 216829 13 | 48:11.05 | 4:08.46 | 216830 | 235475 14 | 52:19.51 | 3:28.41 | 235476 | 251116 15 | 55:48.17 | 4:35.53 | 251117 | 271794 16 | 60:23.70 | 4:09.14 | 271795 | 290483 17 | 64:33.09 | 5:35.32 | 290484 | 315640 18 | 70:08.41 | 4:26.07 | 315641 | 335597
Range status and errors
Selected range
Filename D:\Music\Аллея шансона. Коллекция МК (lossless)\CD_26 - Денис Майданов\Денис Майданов - Аллея шансона. Коллекция МК.wav
Peak level 97.9 % Extraction speed 0.2 X Range quality 100.0 % Test CRC FC0F99AC Copy CRC FC0F99AC Copy OK
No errors occurred
End of status report
[Для просмотра изображения необходимо включить JavaScript]
Дата выхода: 02/08/11
01 - Братва не стреляйте друг друга
02 - Неизвестный паром
03 - Севастополь
04 - Непрощенная
05 - Поезд на Магадан
06 - Ностальгия
07 - Холодное утро
08 - Не ругай меня, мама
09 - Милая
10 - Я сам с собою говорю
11 - Молитва
12 - Маме...
13 - Черный цвет
14 - Мы все равны перед Богом
15 - Подарите мне вечер в Москве
16 - Дождь
17 - Я устал от любви
Продолжительность: 72:47
Exact Audio Copy V1.0 beta 1 from 15. November 2010
EAC extraction logfile from 3. August 2011, 16:52
Евгений Кемеровский / Аллея шансона. Коллекция МК
Used drive : HL-DT-STDVDRAM GT20L Adapter: 1 ID: 0
Read mode : SecureUtilize accurate stream : YesDefeat audio cache : YesMake use of C2 pointers : No
Read offset correction : 667Overread into Lead-In and Lead-Out : NoFill up missing offset samples with silence : YesDelete leading and trailing silent blocks : NoNull samples used in CRC calculations : YesUsed interface : Native Win32 interface for Win NT & 2000
Used output format : User Defined EncoderSelected bitrate : 1024 kBit/sQuality : HighAdd ID3 tag : NoCommand line compressor : C:\Program Files (x86)\Exact Audio Copy\FLAC\FLAC.EXEAdditional command line options : -8 -V %s
TOC of the extracted CD
Track | Start | Length | Start sector | End sector --------------------------------------------------------- 1 | 0:00.00 | 5:41.51 | 0 | 25625 2 | 5:41.51 | 3:42.57 | 25626 | 42332 3 | 9:24.33 | 3:55.56 | 42333 | 60013 4 | 13:20.14 | 5:29.00 | 60014 | 84688 5 | 18:49.14 | 3:45.41 | 84689 | 101604 6 | 22:34.55 | 5:13.61 | 101605 | 125140 7 | 27:48.41 | 3:56.40 | 125141 | 142880 8 | 31:45.06 | 5:02.54 | 142881 | 165584 9 | 36:47.60 | 3:51.59 | 165585 | 182968 10 | 40:39.44 | 4:07.21 | 182969 | 201514 11 | 44:46.65 | 4:23.27 | 201515 | 221266 12 | 49:10.17 | 2:58.11 | 221267 | 234627 13 | 52:08.28 | 2:42.45 | 234628 | 246822 14 | 54:50.73 | 4:17.29 | 246823 | 266126 15 | 59:08.27 | 2:57.32 | 266127 | 279433 16 | 62:05.59 | 5:52.30 | 279434 | 305863 17 | 67:58.14 | 4:49.23 | 305864 | 327561
Range status and errors
Selected range
Filename D:\Music\Аллея шансона. Коллекция МК (lossless)\CD_27 - Евгений Кемеровский\Евгений Кемеровский - Аллея шансона. Коллекция МК.wav
Peak level 98.1 % Extraction speed 0.2 X Range quality 100.0 % Test CRC 4A0BAC24 Copy CRC 4A0BAC24 Copy OK
No errors occurred
End of status report
[Для просмотра изображения необходимо включить JavaScript]
Дата выхода: 09/08/11
01 - Радовать
02 - Верю я
03 - Спасибо
04 - Озёрка
05 - Шалом
06 - За нас
07 - Тетя Хая
08 - Красивая
09 - Минздрав предупреждает
10 - Хулиган
11 - Хотите верьте, хотите нет
12 - Не предавай
13 - Прости
14 - Ах, как жаль
15 - Благославляю
16 - Как нам жить дальше
17 - Пятый туз
18 - Рыбак
Продолжительность: 68:09
Exact Audio Copy V1.0 beta 1 from 15. November 2010
EAC extraction logfile from 9. August 2011, 20:24
Анатолий Днепров / Аллея шансона. Коллекция МК
Used drive : HL-DT-STDVDRAM GT20L Adapter: 1 ID: 0
Read mode : SecureUtilize accurate stream : YesDefeat audio cache : YesMake use of C2 pointers : No
Read offset correction : 667Overread into Lead-In and Lead-Out : NoFill up missing offset samples with silence : YesDelete leading and trailing silent blocks : NoNull samples used in CRC calculations : YesUsed interface : Native Win32 interface for Win NT & 2000
Used output format : User Defined EncoderSelected bitrate : 1024 kBit/sQuality : HighAdd ID3 tag : NoCommand line compressor : C:\Program Files (x86)\Exact Audio Copy\FLAC\FLAC.EXEAdditional command line options : -8 -V %s
TOC of the extracted CD
Track | Start | Length | Start sector | End sector --------------------------------------------------------- 1 | 0:00.00 | 5:49.47 | 0 | 26221 2 | 5:49.47 | 4:17.47 | 26222 | 45543 3 | 10:07.19 | 5:15.22 | 45544 | 69190 4 | 15:22.41 | 4:16.33 | 69191 | 88423 5 | 19:38.74 | 3:28.40 | 88424 | 104063 6 | 23:07.39 | 3:36.53 | 104064 | 120316 7 | 26:44.17 | 3:37.64 | 120317 | 136655 8 | 30:22.06 | 3:49.67 | 136656 | 153897 9 | 34:11.73 | 3:09.15 | 153898 | 168087 10 | 37:21.13 | 3:25.36 | 168088 | 183498 11 | 40:46.49 | 3:01.15 | 183499 | 197088 12 | 43:47.64 | 3:00.06 | 197089 | 210594 13 | 46:47.70 | 3:31.27 | 210595 | 226446 14 | 50:19.22 | 3:39.66 | 226447 | 242937 15 | 53:59.13 | 3:44.74 | 242938 | 259811 16 | 57:44.12 | 3:12.65 | 259812 | 274276 17 | 60:57.02 | 4:00.64 | 274277 | 292340 18 | 64:57.66 | 3:11.05 | 292341 | 306670
Range status and errors
Selected range
Filename D:\Music\Аллея шансона. Коллекция МК (lossless)\CD_28 - Анатолий Днепров\Анатолий Днепров - Аллея шансона. Коллекция МК.wav
Peak level 98.1 % Extraction speed 0.1 X Range quality 100.0 % Test CRC 04A7F344 Copy CRC 04A7F344 Copy OK
No errors occurred
End of status report
[Для просмотра изображения необходимо включить JavaScript]
Дата выхода: 16/08/11
01 - Приходите в мой дом
02 - За волю
03 - Рябина
04 - Задушевная
05 - Запорошены поля
06 - Туда
07 - Не жалейте о прожитом
08 - Только ты одна
09 - Главное жизнь
10 - Кукушки
11 - Думы мои, думы
12 - Не разменять себя по мелочам
13 - Оборвется струна
14 - А над храмом кресты
15 - Тишина матросская
16 - Белые поленья
17 - Не боли душа
18 - Казачья
Продолжительность: 72:27
Exact Audio Copy V1.0 beta 1 from 15. November 2010
EAC extraction logfile from 28. August 2011, 17:30
Игорь Слуцкий / Аллея шансона. Коллекция МК
Used drive : HL-DT-STDVDRAM GT20L Adapter: 1 ID: 0
Read mode : SecureUtilize accurate stream : YesDefeat audio cache : YesMake use of C2 pointers : No
Read offset correction : 667Overread into Lead-In and Lead-Out : NoFill up missing offset samples with silence : YesDelete leading and trailing silent blocks : NoNull samples used in CRC calculations : YesUsed interface : Native Win32 interface for Win NT & 2000
Used output format : User Defined EncoderSelected bitrate : 1024 kBit/sQuality : HighAdd ID3 tag : NoCommand line compressor : C:\Program Files (x86)\Exact Audio Copy\FLAC\FLAC.EXEAdditional command line options : -8 -V %s
TOC of the extracted CD
Track | Start | Length | Start sector | End sector --------------------------------------------------------- 1 | 0:00.00 | 3:29.44 | 0 | 15718 2 | 3:29.44 | 4:07.36 | 15719 | 34279 3 | 7:37.05 | 3:34.30 | 34280 | 50359 4 | 11:11.35 | 3:48.60 | 50360 | 67519 5 | 15:00.20 | 3:59.64 | 67520 | 85508 6 | 19:00.09 | 4:08.72 | 85509 | 104180 7 | 23:09.06 | 3:53.60 | 104181 | 121715 8 | 27:02.66 | 3:44.73 | 121716 | 138588 9 | 30:47.64 | 4:46.42 | 138589 | 160080 10 | 35:34.31 | 4:06.52 | 160081 | 178582 11 | 39:41.08 | 3:49.44 | 178583 | 195801 12 | 43:30.52 | 4:41.11 | 195802 | 216887 13 | 48:11.63 | 4:00.15 | 216888 | 234902 14 | 52:12.03 | 4:01.73 | 234903 | 253050 15 | 56:14.01 | 4:00.07 | 253051 | 271057 16 | 60:14.08 | 3:47.34 | 271058 | 288116 17 | 64:01.42 | 3:24.27 | 288117 | 303443 18 | 67:25.69 | 5:01.52 | 303444 | 326070
Range status and errors
Selected range
Filename D:\Music\Аллея шансона. Коллекция МК (lossless)\CD_29 - Игорь Слуцкий\Игорь Слуцкий - Аллея шансона. Коллекция МК.wav
Peak level 97.9 % Extraction speed 0.1 X Range quality 100.0 % Test CRC 78F771D6 Copy CRC 78F771D6 Copy OK
No errors occurred
End of status report
[Для просмотра изображения необходимо включить JavaScript]
Дата выхода: 23/08/11
01 - Ничего не говори
02 - Костры
03 - Не любить невозможно
04 - Мосты
05 - Весна
06 - Позволь тебя любить
07 - За окном
08 - А осень плакала
09 - Два белых лебедя
10 - Я любви бокал наполню
11 - Взлети же к небу
12 - Весенний дождь
13 - Мне никогда не позабыть тебя
14 - До дна
15 - Пасмурное утро
16 - Поезд
17 - Спасибо за минутное тепло
18 - Шипы невинной розы
Продолжительность: 78:03
Exact Audio Copy V1.0 beta 1 from 15. November 2010
EAC extraction logfile from 28. August 2011, 18:45
Владимир Захаров / Аллея шансона. Коллекция МК
Used drive : HL-DT-STDVDRAM GT20L Adapter: 1 ID: 0
Read mode : SecureUtilize accurate stream : YesDefeat audio cache : YesMake use of C2 pointers : No
Read offset correction : 667Overread into Lead-In and Lead-Out : NoFill up missing offset samples with silence : YesDelete leading and trailing silent blocks : NoNull samples used in CRC calculations : YesUsed interface : Native Win32 interface for Win NT & 2000
Used output format : User Defined EncoderSelected bitrate : 1024 kBit/sQuality : HighAdd ID3 tag : NoCommand line compressor : C:\Program Files (x86)\Exact Audio Copy\FLAC\FLAC.EXEAdditional command line options : -8 -V %s
TOC of the extracted CD
Track | Start | Length | Start sector | End sector --------------------------------------------------------- 1 | 0:00.00 | 4:23.16 | 0 | 19740 2 | 4:23.16 | 4:58.49 | 19741 | 42139 3 | 9:21.65 | 3:24.49 | 42140 | 57488 4 | 12:46.39 | 3:44.69 | 57489 | 74357 5 | 16:31.33 | 3:37.39 | 74358 | 90671 6 | 20:08.72 | 3:36.70 | 90672 | 106941 7 | 23:45.67 | 3:42.34 | 106942 | 123625 8 | 27:28.26 | 5:11.02 | 123626 | 146952 9 | 32:39.28 | 5:21.07 | 146953 | 171034 10 | 38:00.35 | 3:46.32 | 171035 | 188016 11 | 41:46.67 | 4:48.53 | 188017 | 209669 12 | 46:35.45 | 4:29.58 | 209670 | 229902 13 | 51:05.28 | 5:13.69 | 229903 | 253446 14 | 56:19.22 | 4:40.59 | 253447 | 274505 15 | 61:00.06 | 4:42.26 | 274506 | 295681 16 | 65:42.32 | 5:11.01 | 295682 | 319007 17 | 70:53.33 | 3:05.47 | 319008 | 332929 18 | 73:59.05 | 4:04.36 | 332930 | 351265
Range status and errors
Selected range
Filename D:\Music\Аллея шансона. Коллекция МК (lossless)\CD_30 - Владимир Захаров\Владимир Захаров - Аллея шансона. Коллекция МК.wav
Peak level 98.0 % Extraction speed 0.1 X Range quality 100.0 % Test CRC B16254F1 Copy CRC B16254F1 Copy OK
No errors occurred
End of status report
[Для просмотра изображения необходимо включить JavaScript]
Дата выхода: 30/08/11
01 - За той волной
02 - Украду тебя
03 - Чувства
04 - Звезда ненаглядная
05 - Последняя любовь
06 - Эта женщина
07 - Рейс 9208
08 - Цветок
09 - Волчонок
10 - Кружится снег
11 - Караван
12 - Прощание с Айседорой
13 - Любовь моя
14 - Дочка
15 - Казанская осенняя
16 - Брату
17 - Мадонна
18 - Сон
Продолжительность: 65:45
Exact Audio Copy V1.0 beta 1 from 15. November 2010
EAC extraction logfile from 1. September 2011, 0:05
Сергей Любавин / Аллея шансона. Коллекция МК
Used drive : HL-DT-STDVDRAM GT20L Adapter: 1 ID: 0
Read mode : SecureUtilize accurate stream : YesDefeat audio cache : YesMake use of C2 pointers : No
Read offset correction : 667Overread into Lead-In and Lead-Out : NoFill up missing offset samples with silence : YesDelete leading and trailing silent blocks : NoNull samples used in CRC calculations : YesUsed interface : Native Win32 interface for Win NT & 2000
Used output format : User Defined EncoderSelected bitrate : 1024 kBit/sQuality : HighAdd ID3 tag : NoCommand line compressor : C:\Program Files (x86)\Exact Audio Copy\FLAC\FLAC.EXEAdditional command line options : -8 -V %s
TOC of the extracted CD
Track | Start | Length | Start sector | End sector --------------------------------------------------------- 1 | 0:00.00 | 3:20.68 | 0 | 15067 2 | 3:20.68 | 3:46.40 | 15068 | 32057 3 | 7:07.33 | 3:21.30 | 32058 | 47162 4 | 10:28.63 | 3:55.54 | 47163 | 64841 5 | 14:24.42 | 3:18.40 | 64842 | 79731 6 | 17:43.07 | 4:39.35 | 79732 | 100691 7 | 22:22.42 | 3:59.05 | 100692 | 118621 8 | 26:21.47 | 3:53.66 | 118622 | 136162 9 | 30:15.38 | 3:35.47 | 136163 | 152334 10 | 33:51.10 | 3:34.17 | 152335 | 168401 11 | 37:25.27 | 3:28.05 | 168402 | 184006 12 | 40:53.32 | 4:08.05 | 184007 | 202611 13 | 45:01.37 | 3:41.43 | 202612 | 219229 14 | 48:43.05 | 2:46.61 | 219230 | 231740 15 | 51:29.66 | 3:43.72 | 231741 | 248537 16 | 55:13.63 | 4:02.48 | 248538 | 266735 17 | 59:16.36 | 3:16.19 | 266736 | 281454 18 | 62:32.55 | 3:12.46 | 281455 | 295900
Range status and errors
Selected range
Filename D:\Music\Аллея шансона. Коллекция МК (mp3) - 2011\Сергей Любавин - Аллея шансона. Коллекция МК.wav
Peak level 99.0 % Extraction speed 0.1 X Range quality 100.0 % Test CRC C23E52B6 Copy CRC C23E52B6 Copy OK
No errors occurred
End of status report
[Для просмотра изображения необходимо включить JavaScript]
Дата выхода: 06/09/11
01 - Зараза, брось
02 - Человек с гитарою
03 - Три дороги
04 - Фотографии друзей
05 - Белый туман
06 - Отпусти меня
07 - Наказание невиновного
08 - Белая
09 - Байкал
10 - Рыбак
11 - Возвращение
12 - На поле маковом
13 - Тополя
14 - Ярап
15 - Цветы из камня
16 - Правильный путь
17 - Партаки
18 - Босяк
Продолжительность: 69:08
Exact Audio Copy V1.0 beta 1 from 15. November 2010
EAC extraction logfile from 8. September 2011, 21:50
Александр Дюмин / Аллея шансона. Коллекция МК
Used drive : HL-DT-STDVDRAM GT20L Adapter: 1 ID: 0
Read mode : SecureUtilize accurate stream : YesDefeat audio cache : YesMake use of C2 pointers : No
Read offset correction : 667Overread into Lead-In and Lead-Out : NoFill up missing offset samples with silence : YesDelete leading and trailing silent blocks : NoNull samples used in CRC calculations : YesUsed interface : Native Win32 interface for Win NT & 2000
Used output format : User Defined EncoderSelected bitrate : 1024 kBit/sQuality : HighAdd ID3 tag : NoCommand line compressor : C:\Program Files (x86)\Exact Audio Copy\FLAC\FLAC.EXEAdditional command line options : -8 -V %s
TOC of the extracted CD
Track | Start | Length | Start sector | End sector --------------------------------------------------------- 1 | 0:00.00 | 4:05.25 | 0 | 18399 2 | 4:05.25 | 3:14.17 | 18400 | 32966 3 | 7:19.42 | 4:20.50 | 32967 | 52516 4 | 11:40.17 | 4:23.61 | 52517 | 72302 5 | 16:04.03 | 4:23.05 | 72303 | 92032 6 | 20:27.08 | 4:07.33 | 92033 | 110590 7 | 24:34.41 | 2:47.72 | 110591 | 123187 8 | 27:22.38 | 5:14.32 | 123188 | 146769 9 | 32:36.70 | 3:29.26 | 146770 | 162470 10 | 36:06.21 | 4:50.40 | 162471 | 184260 11 | 40:56.61 | 3:16.65 | 184261 | 199025 12 | 44:13.51 | 3:46.41 | 199026 | 216016 13 | 48:00.17 | 2:58.04 | 216017 | 229370 14 | 50:58.21 | 3:52.12 | 229371 | 246782 15 | 54:50.33 | 4:07.39 | 246783 | 265346 16 | 58:57.72 | 3:37.04 | 265347 | 281625 17 | 62:35.01 | 3:34.63 | 281626 | 297738 18 | 66:09.64 | 2:58.58 | 297739 | 311146
Range status and errors
Selected range
Filename D:\Music\Аллея шансона. Коллекция МК (mp3) - 2011\Александр Дюмин - Аллея шансона. Коллекция МК.wav
Peak level 98.4 % Extraction speed 0.1 X Range quality 100.0 % Test CRC B4F123A1 Copy CRC B4F123A1 Copy OK
No errors occurred
End of status report
[Для просмотра изображения необходимо включить JavaScript]
Дата выхода: 20/09/11
01 - Дорожная история
02 - Ой, где я был вчера
03 - Мне ребята сказали про такую наколку
04 - Оси черные. Погоня
05 - Песня про стукача
06 - У нас вчера, с позавчера
07 - Я любил и женщин и проказы
08 - Милицейский протокол
09 - Банька по-белому
10 - Случай на шахте
11 - Песня про уголовный кодекс
12 - Вот раньше жизнь
13 - Тот, кто раньше с нею был
14 - Правда ведь обидно
15 - Весна еще в начале
16 - Рецидивист
17 - Красное, зеленое
18 - Райские яблоки
Продолжительность: 63:19
Exact Audio Copy V1.0 beta 1 from 15. November 2010
EAC extraction logfile from 20. September 2011, 13:44
Владимир Высоцкий / Аллея шансона. Коллекция МК
Used drive : HL-DT-STDVDRAM GT20L Adapter: 1 ID: 0
Read mode : SecureUtilize accurate stream : YesDefeat audio cache : YesMake use of C2 pointers : No
Read offset correction : 667Overread into Lead-In and Lead-Out : NoFill up missing offset samples with silence : YesDelete leading and trailing silent blocks : NoNull samples used in CRC calculations : YesUsed interface : Native Win32 interface for Win NT & 2000
Used output format : User Defined EncoderSelected bitrate : 1024 kBit/sQuality : HighAdd ID3 tag : NoCommand line compressor : C:\Program Files (x86)\Exact Audio Copy\FLAC\FLAC.EXEAdditional command line options : -8 -V %s
TOC of the extracted CD
Track | Start | Length | Start sector | End sector --------------------------------------------------------- 1 | 0:00.00 | 3:35.11 | 0 | 16135 2 | 3:35.11 | 3:37.37 | 16136 | 32447 3 | 7:12.48 | 3:07.47 | 32448 | 46519 4 | 10:20.20 | 3:22.36 | 46520 | 61705 5 | 13:42.56 | 3:54.31 | 61706 | 79286 6 | 17:37.12 | 2:36.51 | 79287 | 91037 7 | 20:13.63 | 2:34.20 | 91038 | 102607 8 | 22:48.08 | 4:14.54 | 102608 | 121711 9 | 27:02.62 | 8:17.34 | 121712 | 159020 10 | 35:20.21 | 3:45.62 | 159021 | 175957 11 | 39:06.08 | 2:54.05 | 175958 | 189012 12 | 42:00.13 | 2:16.64 | 189013 | 199276 13 | 44:17.02 | 4:02.09 | 199277 | 217435 14 | 48:19.11 | 1:36.25 | 217436 | 224660 15 | 49:55.36 | 2:44.36 | 224661 | 236996 16 | 52:39.72 | 2:41.44 | 236997 | 249115 17 | 55:21.41 | 2:00.19 | 249116 | 258134 18 | 57:21.60 | 5:57.14 | 258135 | 284923
Range status and errors
Selected range
Filename D:\Music\Аллея шансона. Коллекция МК (mp3) - 2011\CD_33 - Владимир Высоцкий\Владимир Высоцкий - Аллея шансона. Коллекция МК.wav
Peak level 97.9 % Extraction speed 0.3 X Range quality 99.9 % Test CRC D71A7BF6 Copy CRC D71A7BF6 Copy OK
No errors occurred
End of status report
[Для просмотра изображения необходимо включить JavaScript]
Дата выхода: 27/09/11
01 - Быть хочу счастливым
02 - Где ты
03 - Ветер-бродяга
04 - Ты...
05 - Мы разные
06 - На крыльях любви
07 - Ушла
08 - Мир без тебя
09 - Игрок
10 - Лети душа
11 - Мы все
12 - Разрушительница
13 - Живой
14 - Петербург-Москва
15 - Отпусти
16 - Героям России
17 - Лети по небу
18 - Живи и знай
Продолжительность: 71:15
Exact Audio Copy V1.0 beta 1 from 15. November 2010
EAC extraction logfile from 4. October 2011, 21:40
Стас Михайлов / Аллея шансона. Коллекция МК. Часть 3
Used drive : HL-DT-STDVDRAM GT20L Adapter: 1 ID: 0
Read mode : SecureUtilize accurate stream : YesDefeat audio cache : YesMake use of C2 pointers : No
Read offset correction : 667Overread into Lead-In and Lead-Out : NoFill up missing offset samples with silence : YesDelete leading and trailing silent blocks : NoNull samples used in CRC calculations : YesUsed interface : Native Win32 interface for Win NT & 2000
Used output format : User Defined EncoderSelected bitrate : 1024 kBit/sQuality : HighAdd ID3 tag : NoCommand line compressor : C:\Program Files (x86)\Exact Audio Copy\FLAC\FLAC.EXEAdditional command line options : -8 -V %s
TOC of the extracted CD
Track | Start | Length | Start sector | End sector --------------------------------------------------------- 1 | 0:00.00 | 4:15.54 | 0 | 19178 2 | 4:15.54 | 3:31.08 | 19179 | 35011 3 | 7:46.62 | 4:35.04 | 35012 | 55640 4 | 12:21.66 | 3:40.49 | 55641 | 72189 5 | 16:02.40 | 4:30.58 | 72190 | 92497 6 | 20:33.23 | 3:20.35 | 92498 | 107532 7 | 23:53.58 | 3:47.56 | 107533 | 124613 8 | 27:41.39 | 3:27.45 | 124614 | 140183 9 | 31:09.09 | 3:31.46 | 140184 | 156054 10 | 34:40.55 | 3:37.43 | 156055 | 172372 11 | 38:18.23 | 4:47.58 | 172373 | 193955 12 | 43:06.06 | 3:29.03 | 193956 | 209633 13 | 46:35.09 | 5:20.35 | 209634 | 233668 14 | 51:55.44 | 4:06.74 | 233669 | 252192 15 | 56:02.43 | 3:35.25 | 252193 | 268342 16 | 59:37.68 | 4:31.54 | 268343 | 288721 17 | 64:09.47 | 3:50.51 | 288722 | 306022 18 | 68:00.23 | 3:14.57 | 306023 | 320629
Range status and errors
Selected range
Filename D:\Аллея шансона. Коллекция МК (lossless)\CD_34 - Стас Михайлов. Часть_3\Стас Михайлов - Аллея шансона. Коллекция МК. Часть 3.wav
Peak level 97.9 % Extraction speed 0.2 X Range quality 100.0 % Test CRC D6A713E7 Copy CRC D6A713E7 Copy OK
No errors occurred
End of status report
[Для просмотра изображения необходимо включить JavaScript]
Дата выхода: 04/10/11
01 - Стас Михайлов - Мама
02 - Елена Ваенга - Аэропорт
03 - Андрей Бандера - Ты лети, моя душа
04 - Рада Рай - Душа
05 - Иван Кучин - В Таверне
06 - Бутырка - Шарик
07 - Сергей Трофимов - Снегири
08 - Михаил Шуфутинский - Мосты
09 - Вика Цыганова - Приходите в мой дом
10 - Александр Розенбаум - Рубашка нараспашку
11 - Михаил Круг - Девочка-Пай
12 - Ефрем Амирамов - Молодая
13 - Евгений Кемеровский - Братва, не стреляйте друг друга
14 - Игорь Слуцкий - Задушевная
15 - Виктор Королев - Я не стану ждать тебя на берегу
16 - Катя Огонек - Я ревную тебя
17 - Ирина Круг - Встретились глаза
18 - Жека - Играет Дассен
Продолжительность: 71:34
Exact Audio Copy V1.0 beta 1 from 15. November 2010
EAC extraction logfile from 4. October 2011, 20:36
Лучшее / Аллея шансона. Коллекция МК.
Used drive : HL-DT-STDVDRAM GT20L Adapter: 1 ID: 0
Read mode : SecureUtilize accurate stream : YesDefeat audio cache : YesMake use of C2 pointers : No
Read offset correction : 667Overread into Lead-In and Lead-Out : NoFill up missing offset samples with silence : YesDelete leading and trailing silent blocks : NoNull samples used in CRC calculations : YesUsed interface : Native Win32 interface for Win NT & 2000
Used output format : User Defined EncoderSelected bitrate : 1024 kBit/sQuality : HighAdd ID3 tag : NoCommand line compressor : C:\Program Files (x86)\Exact Audio Copy\FLAC\FLAC.EXEAdditional command line options : -8 -V %s
TOC of the extracted CD
Track | Start | Length | Start sector | End sector --------------------------------------------------------- 1 | 0:00.00 | 3:28.23 | 0 | 15622 2 | 3:28.23 | 3:16.35 | 15623 | 30357 3 | 6:44.58 | 4:11.03 | 30358 | 49185 4 | 10:55.61 | 4:15.32 | 49186 | 68342 5 | 15:11.18 | 4:21.54 | 68343 | 87971 6 | 19:32.72 | 4:11.57 | 87972 | 106853 7 | 23:44.54 | 2:59.28 | 106854 | 120306 8 | 26:44.07 | 3:52.37 | 120307 | 137743 9 | 30:36.44 | 3:32.14 | 137744 | 153657 10 | 34:08.58 | 3:44.52 | 153658 | 170509 11 | 37:53.35 | 4:19.60 | 170510 | 189994 12 | 42:13.20 | 4:02.74 | 189995 | 208218 13 | 46:16.19 | 5:41.58 | 208219 | 233851 14 | 51:58.02 | 3:48.49 | 233852 | 251000 15 | 55:46.51 | 4:15.03 | 251001 | 270128 16 | 60:01.54 | 4:41.51 | 270129 | 291254 17 | 64:43.30 | 2:30.24 | 291255 | 302528 18 | 67:13.54 | 4:20.47 | 302529 | 322075
Range status and errors
Selected range
Filename D:\Аллея шансона. Коллекция МК (lossless)\CD_35 - Лучшее\Лучшее - Аллея шансона. Коллекция МК..wav
Peak level 97.9 % Extraction speed 0.2 X Range quality 100.0 % Test CRC 8B765A58 Copy CRC 8B765A58 Copy OK
No errors occurred
End of status report
Музыкальная коллекция состоит из 35 выпусков, в каждом из которых CD-диск с песнями (не менее 17 треков) и мини-книга о творчестве исполнителя с текстами песен.
График выхода Музыкальной Коллекции:
CD ?? - Любовь Успенская - 24/05??????
CD ?? - Владислав Медяник - 26/07??????
CD ?? - Гр. "Белый орел" - 23/08??????

Постеры

Автор

Yoshkinkot
 


Торрент

Автор: Yoshkinkot
Добавлен: 14 окт 2011, 17:51
Размер: 5.64 ГБ
Размер: 6 051 367 420 байт
Сидеров: 11
Личеров: 138
Скачали: 6
Здоровье: 7%
Статус: Проверен
Изменил: T E K (14 окт 2011, 18:54)
Скорость скачивания: 0 байт/сек
Скорость раздачи: 0 байт/сек
Последний сидер: 3 месяца 9 дней 20 часов 56 минут 10 секунд назад
Последний личер: 3 месяца 9 дней 20 часов 56 минут 10 секунд назад
Приватный: Нет (DHT включён)
Ретро, Шансон, Военная музыка и Барды Скачать торрент
Скачать торрент
[ Размер 87.13 КБ / Просмотров 70 ]


Вернуться в Ретро, Шансон, Военная музыка и Барды

Кто сейчас на конференции

Сейчас этот форум просматривают: нет зарегистрированных пользователей и гости: 1

Привет!

Привет, меня зовут Няша, я что-то типа ангела хранителя RipFunClub'а. Так как админ меня не дописал, я еще глупенькая, и ни чего не умею и между прочим мне за это очень стыдно =( К тому же мой вид меня смущает ='(

А пока я могу только предложить зарегистрироваться или залогинеться =)