Главная » Трекеримпорт
Версия для печати
Бессовестная реклама: на этой странице пока нет =)

[Джейсон Стэтхэм] Механик / The Mechanic (Саймон Уэст) [2011, боевик, триллер, драма, DVDRip-AVC]DUB

Сообщение

[Джейсон Стэтхэм] Механик / The Mechanic (Саймон Уэст) [2011, боевик, триллер, драма, DVDRip-AVC]DUB

Сообщение FireCool » 20 ноя 2011, 16:17

Механик / The Mechanic

Перевод: Профессиональный (полное дублирование), cубтитры: отсутствуют
Формат: DVDRip-AVC, MKV, H.264, AC3
Страна: США
Режиссер: Саймон Уэст
Жанр: боевик, триллер, драма
Продолжительность: 01:28:31
Год выпуска: 2011

В ролях: Джейсон Стэтхэм, Бен Фостер, Тони Голдуин, Дональд Сазерленд, Джефф Чейз, Мини Анден, Джеймс Логан, Эдди Дж. Фернандез, Джошуа Бриджуотер, Джон МакКоннелл

Описание: Артур Бишоп — «Механик», высокопрофессиональный безукоризненный киллер, который всегда работает по правилам — «чисто» и без следов. Такая работа требует полного самообладания и беспристрастности, и в своём деле ему нет равных. Бишоп всегда работал один, но ему пришлось стать наставником молодого и отчаянного Стива. Методичный профессионал и импульсивный ученик теперь на пару «устраняют проблемы», но рано или поздно они сойдутся в смертельной схватке…

[Для просмотра изображения необходимо включить JavaScript] [Для просмотра изображения необходимо включить JavaScript]

[Для просмотра изображения необходимо включить JavaScript]
Видео: 720x436@1023х436(2.35:1),25.000 fps,MPEG4 AVC (x264) High@L4.1, ~2 929 avg,0.373 bit/pixel
Аудио: 48 kHz, AC3, 6 ch, ~384.00 kbps avg
General
Unique ID: 207826950045476187615634263648680455871 (0x9C5A03BF133C79C506120897F5A6AEBF)
Complete name: C:\Documents and Settings\Admin.MICROSOF-42B712\Мои документы\Downloads\The_Mechanic_2011_DVDRip.mkv
Format: Matroska
File size: 2.05 GiB
Duration: 1h 28mn
Overall bit rate: 3 318 Kbps
Writing application: HandBrake 0.9.5
Writing library: libmkv 0.6.4.1

Video
ID: 1
Format: AVC
Format/Info: Advanced Video Codec
Format profile: Main@L3.0
Format settings, CABAC: Yes
Format settings, ReFrames: 4 frames
Codec ID: V_MPEG4/ISO/AVC
Duration: 1h 28mn
Bit rate: 2 929 Kbps
Width: 720 pixels
Height: 436 pixels
Display aspect ratio: 2.35:1
Frame rate mode: Variable
Frame rate: 25.000 fps
Color space: YUV
Chroma subsampling: 4:2:0
Bit depth: 8 bits
Scan type: Progressive
Bits/(Pixel*Frame): 0.373
Stream size: 1.77 GiB (86%)
Writing library: x264 core 112
Encoding settings: cabac=1 / ref=2 / deblock=1:0:0 / analyse=0x1:0x111 / me=hex / subme=6 / psy=1 / psy_rd=1.00:0.00 / mixed_ref=0 / me_range=16 / chroma_me=1 / trellis=0 / 8x8dct=0 / cqm=0 / deadzone=21,11 / fast_pskip=1 / chroma_qp_offset=-2 / threads=12 / sliced_threads=0 / nr=0 / decimate=1 / interlaced=0 / constrained_intra=0 / bframes=2 / b_pyramid=2 / b_adapt=1 / b_bias=0 / direct=1 / weightb=0 / open_gop=0 / weightp=2 / keyint=250 / keyint_min=25 / scenecut=40 / intra_refresh=0 / rc_lookahead=40 / rc=2pass / mbtree=1 / bitrate=2929 / ratetol=1.0 / qcomp=0.60 / qpmin=3 / qpmax=51 / qpstep=4 / cplxblur=20.0 / qblur=0.5 / ip_ratio=1.40 / aq=1:1.00
Language: English
Color primaries: BT.601-6 525, BT.1358 525, BT.1700 NTSC, SMPTE 170M
Transfer characteristics: BT.709-5, BT.1361
Matrix coefficients: BT.601-6 525, BT.1358 525, BT.1700 NTSC, SMPTE 170M

Audio
ID: 2
Format: AC-3
Format/Info: Audio Coding 3
Mode extension: CM (complete main)
Codec ID: A_AC3
Duration: 1h 28mn
Bit rate mode: Constant
Bit rate: 384 Kbps
Channel(s): 6 channels
Channel positions: Front: L C R, Side: L R, LFE
Sampling rate: 48.0 KHz
Bit depth: 16 bits
Compression mode: Lossy
Stream size: 243 MiB (12%)
Language: Russian

Menu
00:00:00.000: Chapter 1
00:09:27.000: Chapter 2
00:21:04.200: Chapter 3
00:30:06.000: Chapter 4
00:35:42.000: Chapter 5
00:46:21.000: Chapter 6
01:00:42.600: Chapter 7
01:09:30.000: Chapter 8
01:19:31.200: Chapter 9
[Для просмотра изображения необходимо включить JavaScript]
[Для просмотра изображения необходимо включить JavaScript]
[Для просмотра изображения необходимо включить JavaScript]
[Для просмотра изображения необходимо включить JavaScript]
[Для просмотра изображения необходимо включить JavaScript]
[Для просмотра изображения необходимо включить JavaScript]
[Для просмотра изображения необходимо включить JavaScript]
[Для просмотра изображения необходимо включить JavaScript]

Постеры

Автор

Аватара пользователя
FireCool
Младший админ
Младший админ
 
Раздал: 4.58 ТБ
Скачал: 394.82 ГБ
Ратио: 11.877
Сообщения: 1299
Зарегистрирован: 03 май 2009, 07:58
Репутация: 48
Откуда: Красноярск


Торрент

Автор: FireCool
Добавлен: 20 ноя 2011, 16:17
Размер: 2.05 ГБ
Размер: 2 202 919 997 байт
Сидеров: 290
Личеров: 8
Скачали: 2
Здоровье: 100%
Раздающих: 100%
Скорость скачивания: 0 байт/сек
Скорость раздачи: 0 байт/сек
Последний сидер: 1 месяц 11 дней 22 часа 1 минуту 30 секунд назад
Последний личер: 1 месяц 11 дней 22 часа 1 минуту 30 секунд назад
Приватный: Нет (DHT включён)
Скачать торрент
Скачать торрент
[ Размер 11.11 КБ / Просмотров 71 ]


Вернуться в импорт

Кто сейчас на конференции

Сейчас этот форум просматривают: нет зарегистрированных пользователей и гости: 0

Привет!

Привет, меня зовут Няша, я что-то типа ангела хранителя RipFunClub'а. Так как админ меня не дописал, я еще глупенькая, и ни чего не умею и между прочим мне за это очень стыдно =( К тому же мой вид меня смущает ='(

А пока я могу только предложить зарегистрироваться или залогинеться =)