Главная » ТрекерВидео (кино, ТВ)АнимеАниме (Обычное качество)
Версия для печати
Бессовестная реклама: на этой странице пока нет =)

Фантастические дни / Sky Blue [Movie][RAW][RUS(int) + ENG(int)] [2003] BDRip [HWP]

Правила форума

Сообщение

Фантастические дни / Sky Blue [Movie][RAW][RUS(int) + ENG(int)] [2003] BDRip [HWP]

Сообщение teaken » 11 янв 2013, 14:42

Год выпуска:2003
Страна:Южная Корея, США
Жанр:Фантастика, приключения, боевик, сёнэн.
Продолжительность:01:25:54
Перевод: Профессиональный (полное дублирование) + Профессиональный (английский дублированный)
Субтитры:нет
Студия:Maxmedia LLC, Tin House Productions
Режиссёр:Ким Мун-Сэнг

Описание:
Будущее. Земля отравлена токсичными выбросами, залита ядовитыми отходами, изрыта вредоносными свалками. В защищенном городе Экобан элита живет в достатке и безопасности, в то время как обитатели окружающих земель медленно вымирают в нечеловеческих условиях. Когда появляется слух, что уровень загрязнения падает, власти Экобана усиливают выбросы, чтобы сохранить за городом статус земли обетованной. На фоне вызванных этим решением беспорядков Суха, один из жителей внешнего мира, прорывается в Экобан, чтобы отключить главный компьютер и остановить смертоносное загрязнение. Но неожиданно на его пути встает Джей, подруга детства. Теперь она занимает пост в городской охране и вынуждена разрываться между долгом служителя закона и верностью любимому человеку...

Качество: BDRip
Формат: AVI
Видео: кодек видео XviD, разрешение видео 720x400, битрейт ~1773 kbps avg, кадры в секунду 23.976 fps
Аудио 1: RUS - кодек аудио AC3, частота 48,0 KHz, кол-во каналов 6 ch, битрейт ~320.00 kbps avg
Аудио 2: ENG - кодек аудио AC3, частота 48,0 KHz, кол-во каналов 6 ch, битрейт ~320.00 kbps avg

General
Complete name: F:\Anime\Wonderful Days.avi
Format: AVI
Format/Info: Audio Video Interleave
File size: 1.46 GiB
Duration: 1h 25mn
Overall bit rate: 2 428 Kbps
Movie name: Wonderful Days
Writing application: VirtualDubMod 1.5.10.2 (build 2540/release)
Comment: 10.01.2013

Video
ID: 0
Format: MPEG-4 Visual
Format profile: Advanced Simple@L5
Format settings, BVOP: 2
Format settings, QPel: No
Format settings, GMC: No warppoints
Format settings, Matrix: Default (MPEG)
Muxing mode: Packed bitstream
Codec ID: XVID
Codec ID/Hint: XviD
Duration: 1h 25mn
Bit rate: 1 774 Kbps
Width: 720 pixels
Height: 400 pixels
Display aspect ratio: 16:9
Original display aspect ratio: 16:9
Frame rate: 23.976 fps
Color space: YUV
Chroma subsampling: 4:2:0
Bit depth: 8 bits
Scan type: Progressive
Compression mode: Lossy
Bits/(Pixel*Frame): 0.257
Stream size: 1.06 GiB (73%)
Writing library: XviD 1.2.1 (UTC 2008-12-04)

Audio #1
ID: 1
Format: AC-3
Format/Info: Audio Coding 3
Mode extension: CM (complete main)
Format settings, Endianness: Big
Codec ID: 2000
Duration: 1h 25mn
Bit rate mode: Constant
Bit rate: 320 Kbps
Channel(s): 6 channels
Channel positions: Front: L C R, Side: L R, LFE
Sampling rate: 48.0 KHz
Bit depth: 16 bits
Compression mode: Lossy
Stream size: 197 MiB (13%)
Alignment: Split accross interleaves
Interleave, duration: 42 ms (1.00 video frame)
Interleave, preload duration: 500 ms

Audio #2
ID: 2
Format: AC-3
Format/Info: Audio Coding 3
Mode extension: CM (complete main)
Format settings, Endianness: Big
Codec ID: 2000
Duration: 1h 25mn
Bit rate mode: Constant
Bit rate: 320 Kbps
Channel(s): 6 channels
Channel positions: Front: L C R, Side: L R, LFE
Sampling rate: 48.0 KHz
Bit depth: 16 bits
Compression mode: Lossy
Stream size: 197 MiB (13%)
Alignment: Split accross interleaves
Interleave, duration: 42 ms (1.00 video frame)
Interleave, preload duration: 500 ms

[Для просмотра изображения необходимо включить JavaScript][Для просмотра изображения необходимо включить JavaScript][Для просмотра изображения необходимо включить JavaScript][Для просмотра изображения необходимо включить JavaScript][Для просмотра изображения необходимо включить JavaScript][Для просмотра изображения необходимо включить JavaScript][Для просмотра изображения необходимо включить JavaScript][Для просмотра изображения необходимо включить JavaScript][Для просмотра изображения необходимо включить JavaScript][Для просмотра изображения необходимо включить JavaScript][Для просмотра изображения необходимо включить JavaScript][Для просмотра изображения необходимо включить JavaScript][Для просмотра изображения необходимо включить JavaScript][Для просмотра изображения необходимо включить JavaScript]

Постеры

Автор

Аватара пользователя
teaken
Супераплоадеры
Супераплоадеры
 
Раздал: 3.19 ГБ
Скачал: 8.6 ГБ
Ратио: 0.371
Сообщения: 3064
Зарегистрирован: 20 фев 2010, 16:37
Репутация: 64


Торрент

Автор: teaken
Добавлен: 11 янв 2013, 14:42
Размер: 1.46 ГБ
Размер: 1 564 434 432 байт
Сидеров: 17
Личеров: 4
Скачали: 1
Здоровье: 100%
Статус: Проверен
Изменил: T E K (11 янв 2013, 14:46)
Скорость скачивания: 0 байт/сек
Скорость раздачи: 0 байт/сек
Последний сидер: 3 года 8 дней 3 часа 43 минуты 6 секунд назад
Последний личер: 3 года 8 дней 3 часа 43 минуты 6 секунд назад
Приватный: Нет (DHT включён)
Аниме (Обычное качество) Скачать торрент
Скачать торрент
[ Размер 15.16 КБ / Просмотров 18 ]


Вернуться в Аниме (Обычное качество)

Кто сейчас на конференции

Сейчас этот форум просматривают: нет зарегистрированных пользователей и гости: 0

Привет!

Привет, меня зовут Няша, я что-то типа ангела хранителя RipFunClub'а. Так как админ меня не дописал, я еще глупенькая, и ни чего не умею и между прочим мне за это очень стыдно =( К тому же мой вид меня смущает ='(

А пока я могу только предложить зарегистрироваться или залогинеться =)