Паркер / Parker (2013) Blu-Ray Remux 1080p RipFunClub | международный торрент-трекер
Главная » ТрекерВидео (кино, ТВ)Художественное кинофильмы (Blu-Ray/BDRip/HD)Blu-Ray
Версия для печати
Бессовестная реклама: на этой странице пока нет =)

Паркер / Parker (2013) Blu-Ray Remux 1080p

Здесь размещены фильмы в качестве Blu-ray
Правила форума

Сообщение

Паркер / Parker (2013) Blu-Ray Remux 1080p

Сообщение teaken » 06 май 2013, 14:22

Название: Паркер
Оригинальное название: Parker
Год выпуска: 2013
Жанр: Боевик, триллер, криминал
Выпущено: США, Alexander/ Mitchell Productions, Anvil Films, Current Entertainment, Incentive Filmed Entertainment, Sidney Kimmel Entertainment, Sierra Pictures (III)
Режиссер: Тейлор Хэкфорд
В ролях: Джейсон Стэйтем, Дженнифер Лопес, Майкл Чиклис, Уенделл Пирс, Клифтон Коллинз мл., Бобби Каннавейл, Пэтти ЛюПон, Карлос Карраско, Мика А. Хауптман, Эмма Бут, Ник Нолти, Дэниэл Бернхард, Билли Слотер, Джон Айс, Карл Дж. Уолкер, Сала Бэйкер, Рио Хекфорд, Кирк Балц, Эрл Мэддокс, Джеймс Каррауэй, Шэрон Ландри, Кристин Брайант, Ребекка Маркс, Алишиа Ош, Мадлен Маркс, Кип Гилмен, Треверс Мэкель, Рэнди Россо, Имон Шиэн, Чак Пицерни мл., Фелипе Саваж, Марк Драт, Питер Хэйг, Морин Соломон, Дерек Сесил

О фильме: Главный герой — профессиональный вор, руководствующийся собственным моральным кодексом, но способный запросто отправить на тот свет любого, кто перейдет ему дорогу.

[Для просмотра изображения необходимо включить JavaScript]

Качество: Blu-Ray Remux (1080p)
Видео: MPEG-4 AVC, 36.3 Мбит/с, 1920x1080, 23.976 кадр/с
Аудио: Русский (АС3, 6 ch, 448 Кбит/с), английский (DTS-HD MA, 6 ch, 3799 Кбит/с)
Размер: 32.39 ГБ
Продолжительность: 01:58:40
Перевод: Дублированный [чистый звук]
Субтитры: Русские, английские
Семпл
General
Complete name : Parker.2013.D.BD-Remux.mkv
Format : Matroska
Format version : Version 2
File size : 32.4 GiB
Duration : 1h 58mn
Overall bit rate mode : Variable
Overall bit rate : 39.1 Mbps
Movie name : Respector
Encoded date : UTC 2013-05-06 11:57:49
Writing application : mkvmerge v5.5.0 ('Healer') built on Apr 24 2012 23:47:03
Writing library : libebml v1.2.3 + libmatroska v1.3.0
Attachment : Yes

Video
ID : 1
Format : AVC
Format/Info : Advanced Video Codec
Format profile : High@L4.1
Format settings, CABAC : Yes
Format settings, ReFrames : 4 frames
Codec ID : V_MPEG4/ISO/AVC
Duration : 1h 58mn
Bit rate mode : Variable
Bit rate : 36.3 Mbps
Maximum bit rate : 37.0 Mbps
Width : 1 920 pixels
Height : 1 080 pixels
Display aspect ratio : 16:9
Frame rate : 23.976 fps
Color space : YUV
Chroma subsampling : 4:2:0
Bit depth : 8 bits
Scan type : Progressive
Bits/(Pixel*Frame) : 0.730
Stream size : 30.1 GiB (93%)
Language : English
Default : Yes
Forced : No

Audio #1
ID : 2
Format : AC-3
Format/Info : Audio Coding 3
Mode extension : CM (complete main)
Format settings, Endianness : Big
Codec ID : A_AC3
Duration : 1h 58mn
Bit rate mode : Constant
Bit rate : 448 Kbps
Channel(s) : 6 channels
Channel positions : Front: L C R, Side: L R, LFE
Sampling rate : 48.0 KHz
Bit depth : 16 bits
Compression mode : Lossy
Stream size : 380 MiB (1%)
Language : Russian
Default : Yes
Forced : Yes

Audio #2
ID : 3
Format : DTS
Format/Info : Digital Theater Systems
Format profile : MA / Core
Codec ID : A_DTS
Duration : 1h 58mn
Bit rate mode : Variable
Bit rate : 1 561 Kbps / 1 510 Kbps
Channel(s) : 6 channels
Channel positions : Front: L C R, Side: L R, LFE
Sampling rate : 48.0 KHz
Bit depth : 24 bits
Compression mode : Lossless / Lossy
Language : English
Default : No
Forced : No

Text #1
ID : 4
Format : UTF-8
Codec ID : S_TEXT/UTF8
Codec ID/Info : UTF-8 Plain Text
Language : Russian
Default : No
Forced : No

Text #2
ID : 5
Format : UTF-8
Codec ID : S_TEXT/UTF8
Codec ID/Info : UTF-8 Plain Text
Language : English
Default : No
Forced : No

Menu
00:00:00.000 : en:Chapter 01
00:06:14.707 : en:Chapter 02
00:14:00.923 : en:Chapter 03
00:19:29.585 : en:Chapter 04
00:26:25.000 : en:Chapter 05
00:31:46.487 : en:Chapter 06
00:38:26.804 : en:Chapter 07
00:42:27.920 : en:Chapter 08
00:49:46.274 : en:Chapter 09
00:55:07.637 : en:Chapter 10
01:01:11.376 : en:Chapter 11
01:06:21.560 : en:Chapter 12
01:11:51.348 : en:Chapter 13
01:22:34.532 : en:Chapter 14
01:30:46.274 : en:Chapter 15
01:38:12.219 : en:Chapter 16

Постеры

Автор

Аватара пользователя
teaken
Супераплоадеры
Супераплоадеры
 
Раздал: 3.19 ГБ
Скачал: 8.6 ГБ
Ратио: 0.371
Сообщения: 3065
Зарегистрирован: 20 фев 2010, 16:37
Репутация: 64


Торрент

Автор: teaken
Добавлен: 06 май 2013, 14:22
Размер: 32.39 ГБ
Размер: 34 781 431 480 байт
Сидеров: 1
Личеров: 364
Скачали: 2
Здоровье: 0%
Раздающих: 50%
Статус: Проверен
Изменил: T E K (06 май 2013, 14:24)
Скорость скачивания: 0 байт/сек
Скорость раздачи: 0 байт/сек
Последний сидер: 3 года 16 дней 18 часов 1 минуту 57 секунд назад
Последний личер: 12 часов 19 минут 35 секунд назад
Приватный: Нет (DHT включён)
Blu-Ray Скачать торрент
Скачать торрент
[ Размер 40.84 КБ / Просмотров 29 ]


Вернуться в Blu-Ray

Кто сейчас на конференции

Сейчас этот форум просматривают: нет зарегистрированных пользователей и гости: 0

Привет!

Привет, меня зовут Няша, я что-то типа ангела хранителя RipFunClub'а. Так как админ меня не дописал, я еще глупенькая, и ни чего не умею и между прочим мне за это очень стыдно =( К тому же мой вид меня смущает ='(

А пока я могу только предложить зарегистрироваться или залогинеться =)