Главная » ТрекерВидео (кино, ТВ)АнимеАниме (Обычное качество)
Версия для печати
Бессовестная реклама: на этой странице пока нет =)

Синий Экзорцист (фильм) / Gekijouban Ao no Exorcist [Movie] (2012) BDRip | Persona99

Правила форума

Сообщение

Синий Экзорцист (фильм) / Gekijouban Ao no Exorcist [Movie] (2012) BDRip | Persona99

Сообщение babasby » 15 авг 2013, 14:51

Страна: Япония
Год выпуска: 2013 г.
Жанр: приключения
Тип: Movie
Продолжительность: 1 ч. 28 м. 47c.
Режиссер: Такахаси Ацуси

Описание: Сюжет фильма делится на две части: в первой из них Юкио, Рин и Шиеми отправляются на задание по уничтожению поезда-призрака, который терроризирует окрестности Тру Крос Тауна, похищая души людей, по ошибке севших в него. Вторая, параллельно развивающаяся сюжетная линия: проходящий в это время фестиваль "11-ти лет". Сюра и Ченг прибывают на место (где, по сюжету, раньше стояла небольшая деревенька, которую погубил демон), для контроля проходящего праздника и усиления печати экзорцистов...

Доп. информация:
Релиз GSGroup
[Для просмотра изображения необходимо включить JavaScript]

Эта серия состоит из:
#1 Синий Экзорцист [ТВ] - ТВ (25 эп. + спэшл), адаптация манги, 2011
#2 Синий Экзорцист (фильм) - п/ф, адаптация манги, 2012

Качество: BDRip
Тип релиза: Без хардсаба
Формат видео: AVI
Совместимость с бытовыми плеерами: Да
Видео: XviD, 720x400, 23,976 кадра/сек, 1520 Кбит/сек
Аудио 1: AC3 48,0 КГц 256 Кбит/сек Язык Русский (в составе контейнера) ; Озвучка: Persona99
Аудио 2: AC3 48,0 КГц 256 Кбит/сек Язык Японский ; Озвучка 2: оригинал
Субтитры: внешние Язык субтитров русский ; Перевод: St.Ranger Редактура: Nati Оформление: nismо Сверка с японским: Pat-Rica
Код: Выделить всё
Общее
Полное имя                               : F:rip\04 NEW[GSG] Ao no Exorcist Movie (AVI)Gekijouban Ao no Exorcist Movie [Persona99](XviD.720x400.AC3).rus.jap.avi
Формат                                   : AVI
Формат/Информация                        : Audio Video Interleave
Размер файла                             : 1,27 Гбайт
Продолжительность                        : 1 ч. 28 м.
Общий поток                              : 2046 Кбит/сек
Программа кодирования                    : VirtualDubMod 1.5.10.2 (build 2540/release)
Библиотека кодирования                   : VirtualDubMod build 2540/release

Видео
Идентификатор                            : 0
Формат                                   : MPEG-4 Visual
Профиль формата                          : Advanced Simple@L5
Параметр BVOP формата                    : 2
Параметр QPel формата                    : Нет
Параметр GMC формата                     : Без точки перехода
Параметр матрицы формата                 : Default (H.263)
Идентификатор кодека                     : XVID
Идентификатор кодека/Подсказка           : XviD
Продолжительность                        : 1 ч. 28 м.
Битрейт                                  : 1520 Кбит/сек
Ширина                                   : 720 пикселей
Высота                                   : 400 пикселей
Соотношение сторон                       : 16:9
Частота кадров                           : 23,976 кадра/сек
Цветовое пространство                    : YUV
Субдискретизация насыщенности            : 4:2:0
Битовая глубина                          : 8 бит
Тип развёртки                            : Прогрессивная
Метод сжатия                             : С потерями
Бит/(Пиксели*Кадры)                      : 0.220
Размер потока                            : 965 Мбайт (74%)
Библиотека кодирования                   : XviD 1.2.1 (UTC 2008-12-04)

Аудио #1
Идентификатор                            : 1
Формат                                   : AC-3
Формат/Информация                        : Audio Coding 3
Расширение режима                        : CM (complete main)
Параметр Endianness формата              : Big
Идентификатор кодека                     : 2000
Продолжительность                        : 1 ч. 28 м.
Вид битрейта                             : Постоянный
Битрейт                                  : 256 Кбит/сек
Каналы                                   : 2 канала
Расположение каналов                     : Front: L R
Частота                                  : 48,0 КГц
Битовая глубина                          : 16 бит
Метод сжатия                             : С потерями
Размер потока                            : 163 Мбайт (13%)
Выравнивание                             : Разделение по промежуткам
Продолжительность промежутка             : 42  мс. (1,00 видеокадр)
Время предзагрузки промежутка            : 500  мс.

Аудио #2
Идентификатор                            : 2
Формат                                   : AC-3
Формат/Информация                        : Audio Coding 3
Расширение режима                        : CM (complete main)
Параметр Endianness формата              : Big
Идентификатор кодека                     : 2000
Продолжительность                        : 1 ч. 28 м.
Вид битрейта                             : Постоянный
Битрейт                                  : 256 Кбит/сек
Каналы                                   : 2 канала
Расположение каналов                     : Front: L R
Частота                                  : 48,0 КГц
Битовая глубина                          : 16 бит
Метод сжатия                             : С потерями
Размер потока                            : 163 Мбайт (13%)
Выравнивание                             : Разделение по промежуткам
Продолжительность промежутка             : 42  мс. (1,00 видеокадр)
Время предзагрузки промежутка            : 500  мс.

Постеры

Автор

Аватара пользователя
babasby
Релизер
Релизер
 
Раздал: 2.64 ГБ
Скачал: 550.25 МБ
Ратио: 4.921
Сообщения: 1517
Зарегистрирован: 08 сен 2010, 16:07
Репутация: 15


Торрент

Автор: babasby
Добавлен: 15 авг 2013, 14:51
Размер: 1.27 ГБ
Размер: 1 362 789 318 байт
Сидеров: 95
Личеров: 59
Скачали: 0
Здоровье: 100%
Статус: Проверен
Изменил: T E K (15 авг 2013, 15:01)
Скорость скачивания: 0 байт/сек
Скорость раздачи: 0 байт/сек
Последний сидер: 1 месяц 8 дней 12 часов 8 минут 58 секунд назад
Последний личер: 1 месяц 8 дней 12 часов 8 минут 58 секунд назад
Приватный: Нет (DHT включён)
Аниме (Обычное качество) Скачать торрент
Скачать торрент
[ Размер 13.41 КБ / Просмотров 17 ]


Вернуться в Аниме (Обычное качество)

Кто сейчас на конференции

Сейчас этот форум просматривают: Google [Bot] и гости: 0

Привет!

Привет, меня зовут Няша, я что-то типа ангела хранителя RipFunClub'а. Так как админ меня не дописал, я еще глупенькая, и ни чего не умею и между прочим мне за это очень стыдно =( К тому же мой вид меня смущает ='(

А пока я могу только предложить зарегистрироваться или залогинеться =)