Главная » ТрекерВидео (кино, ТВ)Художественное кинофильмы (Blu-Ray/BDRip/HD)Blu-Ray
Версия для печати
Бессовестная реклама: на этой странице пока нет =)

Мерзлая земля / The Frozen Ground (2013) BDRemux 1080p

Здесь размещены фильмы в качестве Blu-ray
Правила форума

Сообщение

Мерзлая земля / The Frozen Ground (2013) BDRemux 1080p

Сообщение tukat » 21 сен 2013, 10:35

Название: Мерзлая земля
Оригинальное название: The Frozen Ground
Год выпуска: 2013
Жанр: Триллер, криминал
Выпущено: США, Grindstone Entertainment Group, Emmett/Furla Films, Cheetah Vision
Режиссер: Скотт Уокер
В ролях: Николас Кейдж, Джон Кьюсак, Фифти Сент, Ванесса Энн Хадженс, Рада Митчелл, Дин Норрис, Кэтрин ЛаНаса, Джоди Лин О’Кифи, Мэтт Джералд, Джина Мантенья
О фильме: Все были уверены, что Роберт Хансен — приличный семьянин, владелец пекарни и славный охотник. Никто не подозревал, что на самом деле он — безжалостный маньяк, который похитил и убил более двадцати женщин. И только 17-летней Синди Полсон удалось сбежать от убийцы. Она наводит на след маньяка полицейского, который начинает опасное расследование. Ему никто не верит: Хансен — слишком приличный человек для такого обвинения… Но упорный коп знает свое дело и должен дойти до конца…

[Для просмотра изображения необходимо включить JavaScript]

Качество: Blu-Ray Remux (1080p)
Видео: MPEG-4 AVC, 36129 Кбит/с, 1920x1080, 23.976 кадр/с
Аудио: Русский (AC3, 6 ch, 384 Кбит/с), английский (AC3, 2 ch, 224 Кбит/с), (DTS-HD МА, 6 ch, 3493 Кбит/с)
Размер: 28.05 ГБ
Продолжительность: 01:45:34
Перевод: Дублированный [Не кинотеатральный]
Субтитры: Английские
Общее
Уникальный идентификатор : 173058665927838857456460661646247892090 (0x8231E2FDC347868C956B16B96800947A)
Полное имя : C:Users-DownloadsThe.Frozen.Ground.2013.MPEG-4.AVC.BluRay-Remux(1080p).mkv
Формат : Matroska
Версия формата : Version 2
Размер файла : 28,1 Гбайт
Продолжительность : 1 ч. 45 м.
Режим общего битрейта : Переменный
Общий поток : 38,0 Мбит/сек
Дата кодирования : UTC 2013-09-21 05:59:41
Программа кодирования : mkvmerge v5.6.0 ('Kenya Kane') built on May 27 2012 16:44:04
Библиотека кодирования : libebml v1.2.3 + libmatroska v1.3.0

Видео
Идентификатор : 1
Формат : AVC
Формат/Информация : Advanced Video Codec
Профиль формата : High@L4.1
Параметр CABAC формата : Да
Параметр ReFrames формата : 4 кадра
Идентификатор кодека : V_MPEG4/ISO/AVC
Продолжительность : 1 ч. 45 м.
Вид битрейта : Переменный
Максимальный битрейт : 37,0 Мбит/сек
Ширина : 1920 пикселей
Высота : 1080 пикселей
Соотношение сторон : 16:9
Режим частоты кадров : Постоянный
Частота кадров : 23,976 кадра/сек
Цветовое пространство : YUV
Субдискретизация насыщенности : 4:2:0
Битовая глубина : 8 бит
Тип развёртки : Прогрессивная
Default : Да
Forced : Нет

Аудио #1
Идентификатор : 2
Формат : AC-3
Формат/Информация : Audio Coding 3
Расширение режима : CM (complete main)
Параметр Endianness формата : Big
Идентификатор кодека : A_AC3
Продолжительность : 1 ч. 45 м.
Вид битрейта : Постоянный
Битрейт : 384 Кбит/сек
Каналы : 6 каналов
Расположение каналов : Front: L C R, Side: L R, LFE
Частота : 48,0 КГц
Битовая глубина : 16 бит
Метод сжатия : С потерями
Размер потока : 290 Мбайт (1%)
Заголовок : Дублированный
Язык : Russian
Default : Да
Forced : Да

Аудио #2
Идентификатор : 3
Формат : DTS
Формат/Информация : Digital Theater Systems
Профиль формата : MA / Core
Режим : 16
Параметр Endianness формата : Big
Идентификатор кодека : A_DTS
Продолжительность : 1 ч. 45 м.
Вид битрейта : Переменный
Битрейт : Неизвестно / 1509 Кбит/сек
Каналы : 6 каналов
Расположение каналов : Front: L C R, Side: L R, LFE
Частота : 48,0 КГц
Битовая глубина : 24 бит
Метод сжатия : Без потерь / Lossy
Язык : English
Default : Нет
Forced : Нет

Аудио #3
Идентификатор : 4
Формат : AC-3
Формат/Информация : Audio Coding 3
Расширение режима : CM (complete main)
Параметр Endianness формата : Big
Идентификатор кодека : A_AC3
Продолжительность : 1 ч. 45 м.
Вид битрейта : Постоянный
Битрейт : 224 Кбит/сек
Каналы : 2 канала
Расположение каналов : Front: L R
Частота : 48,0 КГц
Битовая глубина : 16 бит
Метод сжатия : С потерями
Размер потока : 169 Мбайт (1%)
Язык : English
Default : Нет
Forced : Нет

Текст #1
Идентификатор : 5
Формат : PGS
Режим смешивания : zlib
Идентификатор кодека : S_HDMV/PGS
Идентификатор кодека/Информация : The same subtitle format used on BDs/HD-DVDs
Язык : English
Default : Нет
Forced : Нет

Текст #2
Идентификатор : 6
Формат : PGS
Режим смешивания : zlib
Идентификатор кодека : S_HDMV/PGS
Идентификатор кодека/Информация : The same subtitle format used on BDs/HD-DVDs
Язык : English
Default : Нет
Forced : Нет

Меню
00:00:00.000 : en:00:00:00.000
00:05:41.341 : en:00:05:41.341
00:12:40.885 : en:00:12:40.885
00:18:13.634 : en:00:18:13.634
00:23:03.132 : en:00:23:03.132
00:29:12.417 : en:00:29:12.417
00:36:09.959 : en:00:36:09.959
00:44:15.736 : en:00:44:15.736
00:48:28.280 : en:00:48:28.280
00:55:44.091 : en:00:55:44.091
01:01:32.105 : en:01:01:32.105
01:09:21.783 : en:01:09:21.783
01:15:47.543 : en:01:15:47.543
01:22:33.740 : en:01:22:33.740
01:27:34.875 : en:01:27:34.875
01:31:15.053 : en:01:31:15.053

DISC INFO:

Disc Title: The.Frozen.Ground.2013.1080p.BluRay.AVC.DTS-HD.MA.5.1-PublicHD
Disc Size: 48,773,303,224 bytes
Protection: AACS
BD-Java: Yes
BDInfo: 0.5.8

PLAYLIST REPORT:

Name: 00800.MPLS
Length: 1:45:34.161 (h:m:s.ms)
Size: 31,854,888,960 bytes
Total Bitrate: 40.23 Mbps

VIDEO:

Codec Bitrate Deion
----- ------- -----------
MPEG-4 AVC Video 34367 kbps 1080p / 23.976 fps / 16:9 / High Profile 4.1

AUDIO:

Codec Language Bitrate Deion
----- -------- ------- -----------
DTS-HD Master Audio English 3493 kbps 5.1 / 48 kHz / 3493 kbps / 24-bit (DTS Core: 5.1 / 48 kHz / 1509 kbps / 24-bit)
Dolby Digital Audio English 224 kbps 2.0 / 48 kHz / 224 kbps

SUBTITLES:

Codec Language Bitrate Deion
----- -------- ------- -----------
Presentation Graphics English 51.914 kbps
Presentation Graphics English 55.845 kbps
Presentation Graphics Spanish 52.305 kbps

Постеры

Автор

Аватара пользователя
tukat
Супераплоадеры
Супераплоадеры
 
Раздал: 999.61 МБ
Скачал: 4.91 ГБ
Ратио: 0.199
Сообщения: 2440
Зарегистрирован: 24 мар 2010, 14:33
Репутация: 27


Торрент

Автор: tukat
Добавлен: 21 сен 2013, 10:35
Размер: 28.05 ГБ
Размер: 30 121 549 382 байт
Сидеров: 8
Личеров: 166
Скачали: 0
Здоровье: 4%
Статус: Проверен
Изменил: T E K (21 сен 2013, 10:38)
Скорость скачивания: 0 байт/сек
Скорость раздачи: 0 байт/сек
Последний сидер: 10 часов 20 минут 21 секунду назад
Последний личер: 10 часов 20 минут 21 секунду назад
Приватный: Нет (DHT включён)
Blu-Ray Скачать торрент
Скачать торрент
[ Размер 70.67 КБ / Просмотров 19 ]


Вернуться в Blu-Ray

Кто сейчас на конференции

Сейчас этот форум просматривают: нет зарегистрированных пользователей и гости: 0

Привет!

Привет, меня зовут Няша, я что-то типа ангела хранителя RipFunClub'а. Так как админ меня не дописал, я еще глупенькая, и ни чего не умею и между прочим мне за это очень стыдно =( К тому же мой вид меня смущает ='(

А пока я могу только предложить зарегистрироваться или залогинеться =)