Главная » ТрекерВидео (кино, ТВ)Художественное кинофильмы (Blu-Ray/BDRip/HD)Blu-Ray
Версия для печати
Бессовестная реклама: на этой странице пока нет =)

Призрачный патруль / R.I.P.D. (2013) BDRemux 1080p | Лицензия

Здесь размещены фильмы в качестве Blu-ray
Правила форума

Сообщение

Призрачный патруль / R.I.P.D. (2013) BDRemux 1080p | Лицензия

Сообщение teaken » 07 ноя 2013, 08:32

Название: Призрачный патруль
Оригинальное название: R.I.P.D.
Год выпуска: 2013
Жанр: Фантастика, комедия, боевик
Выпущено: США, Dark Horse Entertainment, Original Film, Rhythm & Hues, RSIG Security, Universal Pictures
Режиссер: Роберт Швентке
В ролях: Райан Рейнольдс, Джефф Бриджес, Кевин Бэйкон, Мэри-Луиз Паркер, Стефани Зостак, Роберт Неппер, Мариса Миллер, Джеймс Хонг, Майк О’Мэлли, Девин Рэтрей

О фильме: Молодой полицейский на пике своей карьеры, во время очередного захвата банды преступников погибает. Попав в потусторонний мир он узнает что и там нет покоя, с учетом его способностей ему предлагают работу в "ПП". Это отряд по борьбе с всякой нечистью, духами и призраками, состоящий в организации R.I.P.D. Условие такое, целых сто лет он должен горбатится в команде бессмертных полицейских, выхода нет он соглашается. В напарники ему достается вредный коп старшего возраста, который торчит там еще с времен дикого запада, эпохи ковбоев и бандитов. Работа не простая, духи и разные бежавшие твари могут скрываться даже в мире живых, иногда переселившись в людские тела наши копы делают свое дела и в нашем мире, им все под силу, они же элита.

[Для просмотра изображения необходимо включить JavaScript]

Качество: Blu-Ray Remux (1080p)
Видео: MPEG-4 AVC, 32015 Кбит/с, 1920x1080, 23.976 кадр/с
Аудио: Русский (DTS, 6 ch, 768 Кбит/с), английский (DTS-HD MA, 6 ch, 3924 Кбит/с), (AC3, 2 ch, 192 Кбит/с)
Размер: 24.63 ГБ
Продолжительность: 01:35:56
Перевод: Дублированный [лицензия]
Субтитры: Русские, английские, украинские
Общее
Уникальный идентификатор : 173754088061695219414729845390095176696 (0x82B7D1F31B71C3C19DF75EBF772C53F8)
Полное имя : D:R.I.P.D.2013.D.BD-Remux (1080p).mkv
Формат : Matroska
Версия формата : Version 2
Размер файла : 24,6 Гбайт
Продолжительность : 1 ч. 35 м.
Режим общего битрейта : Переменный
Общий поток : 36,8 Мбит/сек
Название фильма : R.I.P.D. (2013) - Release for HDCLUB
Дата кодирования : UTC 2013-11-06 22:17:16
Программа кодирования : mkvmerge v6.3.0 ('You can't stop me!') built on Jun 28 2013 20:09:41
Библиотека кодирования : libebml v1.3.0 + libmatroska v1.4.0
Видео
Идентификатор : 1
Формат : AVC
Формат/Информация : Advanced Video Codec
Профиль формата : High@L4.1
Параметр CABAC формата : Да
Параметр ReFrames формата : 4 кадра
Параметр GOP формата : M=3, N=12
Идентификатор кодека : V_MPEG4/ISO/AVC
Продолжительность : 1 ч. 35 м.
Вид битрейта : Переменный
Максимальный битрейт : 35,0 Мбит/сек
Ширина : 1920 пикселей
Высота : 1080 пикселей
Соотношение сторон : 16:9
Режим частоты кадров : Постоянный
Частота кадров : 23,976 кадра/сек
Цветовое пространство : YUV
Субдискретизация насыщенности : 4:2:0
Битовая глубина : 8 бит
Тип развёртки : Прогрессивная
Default : Да
Forced : Нет
Аудио #1
Идентификатор : 2
Формат : DTS
Формат/Информация : Digital Theater Systems
Режим : 16
Параметр Endianness формата : Big
Идентификатор кодека : A_DTS
Продолжительность : 1 ч. 35 м.
Вид битрейта : Постоянный
Битрейт : 768 Кбит/сек
Каналы : 6 каналов
Расположение каналов : Front: L C R, Side: L R, LFE
Частота : 48,0 КГц
Битовая глубина : 24 бит
Метод сжатия : С потерями
Размер потока : 527 Мбайт (2%)
Заголовок : DTS 5.1 @ 768 kbps - DUB, Blu-ray CEE
Язык : Russian
Default : Да
Forced : Нет
Аудио #2
Идентификатор : 3
Формат : DTS
Формат/Информация : Digital Theater Systems
Профиль формата : MA / Core
Режим : 16
Параметр Endianness формата : Big
Идентификатор кодека : A_DTS
Продолжительность : 1 ч. 35 м.
Вид битрейта : Переменный
Битрейт : Неизвестно / 1509 Кбит/сек
Каналы : 6 каналов
Расположение каналов : Front: L C R, Side: L R, LFE
Частота : 48,0 КГц
Битовая глубина : 24 бит
Метод сжатия : Без потерь / Lossy
Язык : English
Default : Нет
Forced : Нет
Аудио #3
Идентификатор : 4
Формат : AC-3
Формат/Информация : Audio Coding 3
Профиль формата : Dolby Digital
Расширение режима : CM (complete main)
Параметр Endianness формата : Big
Идентификатор кодека : A_AC3
Продолжительность : 1 ч. 35 м.
Вид битрейта : Постоянный
Битрейт : 192 Кбит/сек
Каналы : 2 канала
Расположение каналов : Front: L R
Частота : 48,0 КГц
Битовая глубина : 16 бит
Метод сжатия : С потерями
Размер потока : 132 Мбайт (1%)
Заголовок : AC3 2.0 @ 192 kbps - Deive
Язык : English
Default : Нет
Forced : Нет
Текст #1
Идентификатор : 5
Формат : UTF-8
Идентификатор кодека : S_TEXT/UTF8
Идентификатор кодека/Информация : UTF-8 Plain Text
Заголовок : Forced, Blu-ray CEE
Язык : Russian
Default : Да
Forced : Нет
Текст #2
Идентификатор : 6
Формат : UTF-8
Идентификатор кодека : S_TEXT/UTF8
Идентификатор кодека/Информация : UTF-8 Plain Text
Заголовок : Blu-ray CEE
Язык : Russian
Default : Нет
Forced : Нет
Текст #3
Идентификатор : 7
Формат : UTF-8
Идентификатор кодека : S_TEXT/UTF8
Идентификатор кодека/Информация : UTF-8 Plain Text
Заголовок : Blu-ray CEE
Язык : Ukrainian
Default : Нет
Forced : Нет
Текст #4
Идентификатор : 8
Формат : UTF-8
Идентификатор кодека : S_TEXT/UTF8
Идентификатор кодека/Информация : UTF-8 Plain Text
Язык : English
Default : Нет
Forced : Нет
Текст #5
Идентификатор : 9
Формат : UTF-8
Идентификатор кодека : S_TEXT/UTF8
Идентификатор кодека/Информация : UTF-8 Plain Text
Заголовок : SDH
Язык : English
Default : Нет
Forced : Нет
Текст #6
Идентификатор : 10
Формат : UTF-8
Идентификатор кодека : S_TEXT/UTF8
Идентификатор кодека/Информация : UTF-8 Plain Text
Заголовок : SDH-COLORED
Язык : English
Default : Нет
Forced : Нет
Меню
00:00:00.000 : en:00:00:00.000
00:03:57.112 : en:00:03:57.112
00:09:13.136 : en:00:09:13.136
00:14:30.578 : en:00:14:30.578
00:17:58.411 : en:00:17:58.411
00:22:30.599 : en:00:22:30.599
00:27:09.503 : en:00:27:09.503
00:33:33.511 : en:00:33:33.511
00:38:46.157 : en:00:38:46.157
00:43:27.647 : en:00:43:27.647
00:46:31.747 : en:00:46:31.747
00:52:04.038 : en:00:52:04.038
00:55:52.099 : en:00:55:52.099
01:02:15.982 : en:01:02:15.982
01:07:01.100 : en:01:07:01.100
01:10:35.690 : en:01:10:35.690
01:13:16.309 : en:01:13:16.309
01:17:52.126 : en:01:17:52.126
01:23:00.934 : en:01:23:00.934
01:27:27.909 : en:01:27:27.909

Постеры

Автор

Аватара пользователя
teaken
Супераплоадеры
Супераплоадеры
 
Раздал: 3.19 ГБ
Скачал: 8.6 ГБ
Ратио: 0.371
Сообщения: 3064
Зарегистрирован: 20 фев 2010, 16:37
Репутация: 64


Торрент

Автор: teaken
Добавлен: 07 ноя 2013, 08:32
Размер: 24.63 ГБ
Размер: 26 443 297 217 байт
Сидеров: 26
Личеров: 67
Скачали: 1
Здоровье: 38%
Раздающих: 100%
Статус: Проверен
Изменил: T E K (07 ноя 2013, 08:33)
Скорость скачивания: 0 байт/сек
Скорость раздачи: 0 байт/сек
Последний сидер: 7 дней 17 часов 57 минут 10 секунд назад
Последний личер: 7 дней 17 часов 57 минут 10 секунд назад
Приватный: Нет (DHT включён)
Blu-Ray Скачать торрент
Скачать торрент
[ Размер 123.48 КБ / Просмотров 17 ]


Вернуться в Blu-Ray

Кто сейчас на конференции

Сейчас этот форум просматривают: нет зарегистрированных пользователей и гости: 0

Привет!

Привет, меня зовут Няша, я что-то типа ангела хранителя RipFunClub'а. Так как админ меня не дописал, я еще глупенькая, и ни чего не умею и между прочим мне за это очень стыдно =( К тому же мой вид меня смущает ='(

А пока я могу только предложить зарегистрироваться или залогинеться =)