Главная » ТрекерВидео (кино, ТВ)Художественное кинофильмы (Blu-Ray/BDRip/HD)BDRip
Версия для печати
Бессовестная реклама: на этой странице пока нет =)

Уиджи: Доска Дьявола / Ouija (2014) BDRip 1080p | Лицензия

В даном разделе все BDRip (720, 1080)
Правила форума

Сообщение

Уиджи: Доска Дьявола / Ouija (2014) BDRip 1080p | Лицензия

Сообщение ayatosem » 23 фев 2015, 10:43

Название: Уиджи: Доска Дьявола
Оригинальное название: Ouija
Год выхода: 2014
Жанр: ужасы
Режиссер: Стайлз Уайт / Stiles White
В ролях: Оливия Кук, Ана Кото, Дарен Кагасофф, Бьянка А. Сантос, Дуглас Смит, Шелли Хенниг, Сьерра Хойерманн, Санни Мэй Эллисон, Лин Шэй, Клаудия Кац

О фильме:
Компания друзей вынуждена столкнуться с их самыми страшными кошмарами, после того, как пробуждает темные силы с помощью спиритической доски.

Страна: США
Студия: Blumhouse Productions
Продолжительность: 01:29:30
Перевод: Профессиональный (дублированный)

Кодек: x264
Качество: BDRip 1080p
Видео: MPEG-4 AVC, 17.2 Mбит/с, 1920x800, 23,976 fps
Звук:
Аудио: Rus, AC3, 448 kb/s (6 ch), 48 kHz
Аудио 2: Eng, DTS, 1510 kb/s (6 ch), 48 kHz
Субтитры: Rus, Eng
Format : Matroska
Format version : Version 4 / Version 2
File size : 12.2 GiB
Duration : 1h 29mn
Overall bit rate : 19.5 Mbps
Movie name : Tonik
Encoded date : UTC 2015-02-23 06:40:20
Writing application : mkvmerge v7.1.0 ('Good Love') 64bit built on Jul 27 2014 13:06:55
Writing library : libebml v1.3.0 + libmatroska v1.4.1
_STATISTICS_WRITING_APP : mkvmerge v7.1.0 ('Good Love') 64bit built on Jul 27 2014 13:06:55
_STATISTICS_WRITING_DATE_UTC : 2015-02-23 06:40:20
_STATISTICS_TAGS : BPS DURATION NUMBER_OF_FRAMES NUMBER_OF_BYTES
DURATION : 01:22:33.406000000
NUMBER_OF_FRAMES : 976
NUMBER_OF_BYTES : 26317

Video
ID : 1
Format : AVC
Format/Info : Advanced Video Codec
Format profile : High@L4.1
Format settings, CABAC : Yes
Format settings, ReFrames : 5 frames
Codec ID : V_MPEG4/ISO/AVC
Duration : 1h 29mn
Bit rate : 17.2 Mbps
Width : 1 920 pixels
Height : 800 pixels
Display aspect ratio : 2.40:1
Frame rate mode : Constant
Frame rate : 23.976 fps
Color space : YUV
Chroma subsampling : 4:2:0
Bit depth : 8 bits
Scan type : Progressive
Bits/(Pixel*Frame) : 0.467
Stream size : 10.7 GiB (88%)
Writing library : x264 core 142 r2431+42 c69a006 tMod [8-bit@all X86_64]
Encoding settings : cabac=1 / ref=5 / deblock=1:-3:-3 / analyse=0x3:0x133 / me=umh / subme=11 / psy=1 / fade_compensate=0.00 / psy_rd=1.05:0.00 / mixed_ref=1 / me_range=24 / chroma_me=1 / trellis=2 / 8x8dct=1 / cqm=0 / deadzone=21,11 / fast_pskip=0 / chroma_qp_offset=-2 / threads=24 / lookahead_threads=4 / sliced_threads=0 / nr=0 / decimate=0 / interlaced=0 / bluray_compat=0 / constrained_intra=0 / fgo=0 / bframes=9 / b_pyramid=2 / b_adapt=2 / b_bias=0 / direct=3 / weightb=1 / open_gop=0 / weightp=2 / keyint=250 / keyint_min=23 / scenecut=40 / intra_refresh=0 / rc=crf / mbtree=0 / crf=17.5000 / qcomp=0.65 / qpmin=0:0:0 / qpmax=69:69:69 / qpstep=4 / ip_ratio=1.20 / pb_ratio=1.10 / aq=3:0.80 / aq-sensitivity=10.00 / aq-factor=1.00:1.00:1.00 / aq2=0 / aq3=0
Language : English
Default : Yes
Forced : No
DURATION : 01:29:30.157000000
NUMBER_OF_FRAMES : 128755
NUMBER_OF_BYTES : 11793289541
_STATISTICS_WRITING_APP : mkvmerge v7.1.0 ('Good Love') 64bit built on Jul 27 2014 13:06:55
_STATISTICS_WRITING_DATE_UTC : 2015-02-23 06:40:20
_STATISTICS_TAGS : BPS DURATION NUMBER_OF_FRAMES NUMBER_OF_BYTES

Audio #1
ID : 2
Format : AC-3
Format/Info : Audio Coding 3
Mode extension : CM (complete main)
Format settings, Endianness : Big
Codec ID : A_AC3
Duration : 1h 29mn
Bit rate mode : Constant
Bit rate : 448 Kbps
Channel(s) : 6 channels
Channel positions : Front: L C R, Side: L R, LFE
Sampling rate : 48.0 KHz
Bit depth : 16 bits
Compression mode : Lossy
Stream size : 287 MiB (2%)
Language : Russian
Default : Yes
Forced : No

Audio #2
ID : 3
Format : DTS
Format/Info : Digital Theater Systems
Mode : 16
Format settings, Endianness : Big
Codec ID : A_DTS
Duration : 1h 29mn
Bit rate mode : Constant
Bit rate : 1 509 Kbps
Channel(s) : 6 channels
Channel positions : Front: L C R, Side: L R, LFE
Sampling rate : 48.0 KHz
Bit depth : 24 bits
Compression mode : Lossy
Stream size : 966 MiB (8%)
Language : English
Default : No
Forced : No

Text #1
ID : 4
Format : UTF-8
Codec ID : S_TEXT/UTF8
Codec ID/Info : UTF-8 Plain Text
Title : Forced
Language : Russian
Default : Yes
Forced : No

Text #2
ID : 5
Format : UTF-8
Codec ID : S_TEXT/UTF8
Codec ID/Info : UTF-8 Plain Text
Language : Russian
Default : No
Forced : No

Text #3
ID : 6
Format : UTF-8
Codec ID : S_TEXT/UTF8
Codec ID/Info : UTF-8 Plain Text
Language : English
Default : No
Forced : No

Text #4
ID : 7
Format : UTF-8
Codec ID : S_TEXT/UTF8
Codec ID/Info : UTF-8 Plain Text
Title : SDH
Language : English
Default : No
Forced : No

Menu
00:00:00.000 : en:00:00:00.000
00:05:22.822 : en:00:05:22.822
00:09:30.361 : en:00:09:30.361
00:11:55.673 : en:00:11:55.673
00:16:27.153 : en:00:16:27.153
00:18:56.802 : en:00:18:56.802
00:24:13.827 : en:00:24:13.827
00:26:07.357 : en:00:26:07.357
00:32:09.344 : en:00:32:09.344
00:36:52.127 : en:00:36:52.127
00:41:43.126 : en:00:41:43.126
00:44:13.943 : en:00:44:13.943
00:50:08.464 : en:00:50:08.464
00:55:04.009 : en:00:55:04.009
01:00:28.625 : en:01:00:28.625
01:05:12.200 : en:01:05:12.200
01:10:02.949 : en:01:10:02.949
01:14:18.496 : en:01:14:18.496
01:20:20.441 : en:01:20:20.441
01:22:46.461 : en:01:22:46.461

Постеры

Автор

Аватара пользователя
ayatosem
Релизер
Релизер
 
Раздал: 10.55 ГБ
Скачал: 5.8 ГБ
Ратио: 1.820
Сообщения: 2355
Зарегистрирован: 10 май 2010, 10:09
Репутация: 22


Торрент

Автор: ayatosem
Добавлен: 23 фев 2015, 10:43
Размер: 12.21 ГБ
Размер: 13 108 666 048 байт
Сидеров: 22
Личеров: 5
Скачали: 0
Здоровье: 100%
Скорость скачивания: 0 байт/сек
Скорость раздачи: 0 байт/сек
Последний сидер: 1 месяц 23 дня 11 часов 55 минут 25 секунд назад
Последний личер: 1 месяц 23 дня 11 часов 55 минут 25 секунд назад
Приватный: Нет (DHT включён)
BDRip Скачать торрент
Скачать торрент
[ Размер 31.19 КБ / Просмотров 8 ]


Вернуться в BDRip

Кто сейчас на конференции

Сейчас этот форум просматривают: нет зарегистрированных пользователей и гости: 1

Привет!

Привет, меня зовут Няша, я что-то типа ангела хранителя RipFunClub'а. Так как админ меня не дописал, я еще глупенькая, и ни чего не умею и между прочим мне за это очень стыдно =( К тому же мой вид меня смущает ='(

А пока я могу только предложить зарегистрироваться или залогинеться =)