Главная » ТрекерВидео (кино, ТВ)Художественное кинофильмы (Blu-Ray/BDRip/HD)BDRip
Версия для печати
Бессовестная реклама: на этой странице пока нет =)

Интерстеллар / Interstellar (2014) BDRip 720p | IMAX Edition

В даном разделе все BDRip (720, 1080)
Правила форума

Сообщение

Интерстеллар / Interstellar (2014) BDRip 720p | IMAX Edition

Сообщение ayatosem » 15 мар 2015, 13:37

Название: Интерстеллар
Оригинальное название: Interstellar
Год выхода: 2014
Жанр: фантастика, боевик, детектив, приключения
Режиссер: Кристофер Нолан
В ролях: Мэттью МакКонахи, Энн Хэтэуэй, Кейси Аффлек, Джессика Честейн, Тофер Грейс, Уэс Бентли, Майкл Кейн, Маккензи Фой, Джон Литгоу, Эллен Бёрстин

О фильме:
Когда засуха приводит человечество к продовольственному кризису, коллектив исследователей и учёных отправляется сквозь червоточину (которая предположительно соединяет области пространства-времени через большое расстояние) в путешествие, чтобы превзойти прежние ограничения для космических путешествий человека и переселить человечество на другую планету.

[Для просмотра изображения необходимо включить JavaScript]

Выпущено: США, Великобритания / Legendary Pictures, Lynda Obst Productions, Paramount Pictures, Warner Bros.
Продолжительность: 02:49:03
Озвучивание: Дублированное [чистый звук] Официальный

Формат: MKV
Качество: BDRip 720p
Видео: MPEG-4 AVC, 5182 Кбит/с, 1280x720
Аудио: Русский (AC3, 2 ch, 384 Кбит/с), английский (DTS, 6 ch, 1510 Кбит/с)
Субтитры: English, German, Spanish
Дополнительно: Сохранены оригинальные чаптеры
Общее
Уникальный идентификатор : 233072602962504456934306659945244495471 (0xAF582688E22D0CA7972BC770FAFB8E6F)
Полное имя : C:Interstellar.2014.BDRip.720p.IMAX.Edition.mkv
Формат : Matroska
Версия формата : Version 2
Размер файла : 8,52 Гбайт
Продолжительность : 2 ч. 49 м.
Общий поток : 7218 Кбит/сек
Дата кодирования : UTC 2015-03-14 23:27:24
Программа кодирования : mkvmerge v7.7.0 ('Six Voices') 64bit built on Feb 28 2015 23:39:33
Библиотека кодирования : libebml v1.3.1 + libmatroska v1.4.2
_STATISTICS_WRITING_APP : mkvmerge v7.7.0 ('Six Voices') 64bit built on Feb 28 2015 23:39:33
_STATISTICS_WRITING_DATE_UTC : 2015-03-14 23:27:24
_STATISTICS_TAGS : BPS DURATION NUMBER_OF_FRAMES NUMBER_OF_BYTES
DURATION : 02:47:46.598000000
NUMBER_OF_FRAMES : 4002
NUMBER_OF_BYTES : 17462814

Видео
Идентификатор : 1
Формат : AVC
Формат/Информация : Advanced Video Codec
Профиль формата : High@L4.1
Параметр CABAC формата : Да
Параметр ReFrames формата : 4 кадра
Идентификатор кодека : V_MPEG4/ISO/AVC
Продолжительность : 2 ч. 49 м.
Битрейт : 5182 Кбит/сек
Ширина : 1280 пикселей
Высота : 720 пикселей
Соотношение сторон : 16:9
Режим частоты кадров : Постоянный
Частота кадров : 23,976 кадра/сек
Цветовое пространство : YUV
Субдискретизация насыщенности : 4:2:0
Битовая глубина : 8 бит
Тип развёртки : Прогрессивная
Бит/(Пиксели*Кадры) : 0.235
Размер потока : 6,12 Гбайт (72%)
Библиотека кодирования : x264 core 146 r2538 121396c
Настройки программы : cabac=1 / ref=1 / deblock=1:0:0 / analyse=0x3:0x113 / me=dia / subme=2 / psy=1 / psy_rd=1.00:0.00 / mixed_ref=0 / me_range=16 / chroma_me=1 / trellis=0 / 8x8dct=1 / cqm=0 / deadzone=21,11 / fast_pskip=1 / chroma_qp_offset=-2 / threads=24 / lookahead_threads=5 / sliced_threads=0 / nr=0 / decimate=1 / interlaced=0 / bluray_compat=0 / constrained_intra=0 / bframes=3 / b_pyramid=2 / b_adapt=1 / b_bias=0 / direct=1 / weightb=1 / open_gop=0 / weightp=1 / keyint=240 / keyint_min=23 / scenecut=40 / intra_refresh=0 / rc=cqp / mbtree=0 / qp=17 / ip_ratio=1.40 / pb_ratio=1.30 / aq=0
Язык : English
Default : Да
Forced : Нет
DURATION : 02:49:03.926000000
NUMBER_OF_FRAMES : 243211
NUMBER_OF_BYTES : 6692314956
_STATISTICS_WRITING_APP : mkvmerge v7.7.0 ('Six Voices') 64bit built on Feb 28 2015 23:39:33
_STATISTICS_WRITING_DATE_UTC : 2015-03-14 23:27:24
_STATISTICS_TAGS : BPS DURATION NUMBER_OF_FRAMES NUMBER_OF_BYTES

Аудио #1
Идентификатор : 2
Формат : AC-3
Формат/Информация : Audio Coding 3
Расширение режима : CM (complete main)
Параметр Endianness формата : Big
Идентификатор кодека : A_AC3
Продолжительность : 2 ч. 49 м.
Вид битрейта : Постоянный
Битрейт : 384 Кбит/сек
Каналы : 2 канала
Расположение каналов : Front: L R
Частота : 48,0 КГц
Битовая глубина : 16 бит
Метод сжатия : С потерями
Размер потока : 464 Мбайт (5%)
Язык : Russian
Default : Да
Forced : Нет

Аудио #2
Идентификатор : 3
Формат : DTS
Формат/Информация : Digital Theater Systems
Режим : 16
Параметр Endianness формата : Big
Идентификатор кодека : A_DTS
Продолжительность : 2 ч. 49 м.
Вид битрейта : Постоянный
Битрейт : 1509 Кбит/сек
Каналы : 6 каналов
Расположение каналов : Front: L C R, Side: L R, LFE
Частота : 48,0 КГц
Битовая глубина : 24 бит
Метод сжатия : С потерями
Размер потока : 1,78 Гбайт (21%)
Язык : English
Default : Нет
Forced : Нет

Текст #1
Идентификатор : 4
Формат : PGS
Режим смешивания : zlib
Идентификатор кодека : S_HDMV/PGS
Идентификатор кодека/Информация : The same subtitle format used on BDs/HD-DVDs
Язык : English
Default : Нет
Forced : Нет

Текст #2
Идентификатор : 5
Формат : PGS
Режим смешивания : zlib
Идентификатор кодека : S_HDMV/PGS
Идентификатор кодека/Информация : The same subtitle format used on BDs/HD-DVDs
Язык : German
Default : Нет
Forced : Нет

Текст #3
Идентификатор : 6
Формат : PGS
Режим смешивания : zlib
Идентификатор кодека : S_HDMV/PGS
Идентификатор кодека/Информация : The same subtitle format used on BDs/HD-DVDs
Язык : Spanish
Default : Нет
Forced : Нет

Меню
00:00:00.000 : en:
00:09:35.491 : en:
00:17:12.322 : en:
00:25:00.749 : en:
00:35:45.393 : en:
00:42:16.867 : en:
00:50:19.891 : en:
00:54:48.076 : en:
00:58:59.702 : en:
01:06:15.012 : en:
01:17:28.185 : en:
01:25:32.001 : en:
01:34:31.999 : en:
01:46:14.701 : en:
01:55:34.552 : en:
02:02:14.368 : en:
02:12:56.843 : en:
02:20:53.820 : en:
02:35:12.094 : en:
02:43:59.830 : en:

Постеры

Автор

Аватара пользователя
ayatosem
Релизер
Релизер
 
Раздал: 10.55 ГБ
Скачал: 5.8 ГБ
Ратио: 1.820
Сообщения: 2355
Зарегистрирован: 10 май 2010, 10:09
Репутация: 22


Торрент

Автор: ayatosem
Добавлен: 15 мар 2015, 13:37
Размер: 8.52 ГБ
Размер: 9 152 686 093 байт
Сидеров: 2132
Личеров: 3106
Скачали: 4
Здоровье: 68%
Раздающих: 100%
Статус: Проверен
Изменил: T E K (15 мар 2015, 13:38)
Скорость скачивания: 0 байт/сек
Скорость раздачи: 0 байт/сек
Последний сидер: 11 дней 18 часов 54 минуты 59 секунд назад
Последний личер: 11 дней 18 часов 54 минуты 59 секунд назад
Приватный: Нет (DHT включён)
BDRip Скачать торрент
Скачать торрент
[ Размер 21.88 КБ / Просмотров 24 ]


Вернуться в BDRip

Кто сейчас на конференции

Сейчас этот форум просматривают: нет зарегистрированных пользователей и гости: 0

Привет!

Привет, меня зовут Няша, я что-то типа ангела хранителя RipFunClub'а. Так как админ меня не дописал, я еще глупенькая, и ни чего не умею и между прочим мне за это очень стыдно =( К тому же мой вид меня смущает ='(

А пока я могу только предложить зарегистрироваться или залогинеться =)