Главная » ТрекерВидео (кино, ТВ)Художественное кинофильмы (Blu-Ray/BDRip/HD)BDRip
Версия для печати
Бессовестная реклама: на этой странице пока нет =)

Приключения Паддингтона / Paddington (2014) BDRip 720p

В даном разделе все BDRip (720, 1080)
Правила форума

Сообщение

Приключения Паддингтона / Paddington (2014) BDRip 720p

Сообщение ayatosem » 22 мар 2015, 07:14

Название: Приключения Паддингтона
Оригинальное название: Paddington
Год выхода: 2014
Жанр: комедия, семейный
Режиссер: Пол Кинг
В ролях: Джеффри Палмер, Тим Дауни, Мадлен Уорролл, Лотти Стир, Тереза Уотсон, Имелда Стонтон, Майкл Гэмбон, Бен Уишоу, Хью Бонневилль, Салли Хокинс

О фильме: Познакомьтесь, это медведь по имени Паддингтон из дремучего Перу. Он приехал в Лондон, чтобы обрести семью и стать настоящим английским джентльменом. На пути к этой цели его ожидают невероятные приключения, полные юмора и опасностей. В основе сюжета первой части новой масштабной кинофраншизы всемирно известная серия детских книг писателя Майкла Бонда, изданных на 40 языках тиражом более 35 миллионов экземпляров.

[Для просмотра изображения необходимо включить JavaScript]

Выпущено: Великобритания, Франция
Продолжительность: 01:35:12
Озвучивание: Дублированное [чистый звук] Официальный

Формат: MKV
Качество: BDRip 720p
Видео: MPEG-4 AVC, 5058 Кбит/с, 1280x536
Аудио: Русский (AC3, 2 ch, 192 Кбит/с), английский (DTS, 6 ch, 1510 Кбит/с)
Размер: 4.5 ГБ
Уникальный идентификатор : 194236867212153549784090678470002003424 (0x9220A8EE5722452BA1C63B41B19ECDE0)
Полное имя : C:Paddington.2014.720p.mkv
Формат : Matroska
Версия формата : Version 4 / Version 2
Размер файла : 4,50 Гбайт
Продолжительность : 1 ч. 35 м.
Общий поток : 6760 Кбит/сек
Дата кодирования : UTC 2015-03-21 00:29:57
Программа кодирования : mkvmerge v7.7.0 ('Six Voices') 64bit built on Feb 28 2015 23:39:33
Библиотека кодирования : libebml v1.3.1 + libmatroska v1.4.2
DURATION : 01:35:12.480000000
NUMBER_OF_FRAMES : 178515
NUMBER_OF_BYTES : 137099520
_STATISTICS_WRITING_APP : mkvmerge v7.7.0 ('Six Voices') 64bit built on Feb 28 2015 23:39:33
_STATISTICS_WRITING_DATE_UTC : 2015-03-21 00:29:57
_STATISTICS_TAGS : BPS DURATION NUMBER_OF_FRAMES NUMBER_OF_BYTES

Видео
Идентификатор : 1
Формат : AVC
Формат/Информация : Advanced Video Codec
Профиль формата : High@L4.1
Параметр CABAC формата : Да
Параметр ReFrames формата : 5 кадров
Идентификатор кодека : V_MPEG4/ISO/AVC
Продолжительность : 1 ч. 35 м.
Битрейт : 5058 Кбит/сек
Ширина : 1280 пикселей
Высота : 536 пикселей
Соотношение сторон : 2,40:1
Режим частоты кадров : Постоянный
Частота кадров : 23,976 кадра/сек
Цветовое пространство : YUV
Субдискретизация насыщенности : 4:2:0
Битовая глубина : 8 бит
Тип развёртки : Прогрессивная
Бит/(Пиксели*Кадры) : 0.307
Размер потока : 3,28 Гбайт (73%)
Библиотека кодирования : x264 core 144 r2525 40bb568
Настройки программы : cabac=1 / ref=5 / deblock=1:0:0 / analyse=0x3:0x133 / me=umh / subme=7 / psy=1 / psy_rd=1.00:0.00 / mixed_ref=1 / me_range=16 / chroma_me=1 / trellis=1 / 8x8dct=1 / cqm=0 / deadzone=21,11 / fast_pskip=0 / chroma_qp_offset=-2 / threads=18 / lookahead_threads=3 / sliced_threads=0 / nr=0 / decimate=1 / interlaced=0 / bluray_compat=0 / constrained_intra=0 / bframes=3 / b_pyramid=2 / b_adapt=1 / b_bias=0 / direct=1 / weightb=1 / open_gop=0 / weightp=2 / keyint=250 / keyint_min=23 / scenecut=40 / intra_refresh=0 / rc_lookahead=40 / rc=2pass / mbtree=1 / bitrate=5058 / ratetol=1.0 / qcomp=0.60 / qpmin=0 / qpmax=69 / qpstep=4 / cplxblur=20.0 / qblur=0.5 / ip_ratio=1.40 / aq=1:1.00
Язык : English
Default : Да
Forced : Нет
DURATION : 01:35:12.633000000
NUMBER_OF_FRAMES : 136966
NUMBER_OF_BYTES : 3610941616
_STATISTICS_WRITING_APP : mkvmerge v7.7.0 ('Six Voices') 64bit built on Feb 28 2015 23:39:33
_STATISTICS_WRITING_DATE_UTC : 2015-03-21 00:29:57
_STATISTICS_TAGS : BPS DURATION NUMBER_OF_FRAMES NUMBER_OF_BYTES

Аудио #1
Идентификатор : 2
Формат : AC-3
Формат/Информация : Audio Coding 3
Расширение режима : CM (complete main)
Параметр Endianness формата : Big
Идентификатор кодека : A_AC3
Продолжительность : 1 ч. 35 м.
Вид битрейта : Постоянный
Битрейт : 192 Кбит/сек
Каналы : 2 канала
Расположение каналов : Front: L R
Частота : 48,0 КГц
Битовая глубина : 16 бит
Метод сжатия : С потерями
Размер потока : 131 Мбайт (3%)
Язык : Russian
Default : Да
Forced : Нет

Аудио #2
Идентификатор : 3
Формат : DTS
Формат/Информация : Digital Theater Systems
Режим : 16
Параметр Endianness формата : Big
Идентификатор кодека : A_DTS
Продолжительность : 1 ч. 35 м.
Вид битрейта : Постоянный
Битрейт : 1509 Кбит/сек
Каналы : 6 каналов
Расположение каналов : Front: L C R, Side: L R, LFE
Частота : 48,0 КГц
Битовая глубина : 24 бит
Метод сжатия : С потерями
Размер потока : 1,00 Гбайт (22%)
Язык : English
Default : Нет
Forced : Нет

Меню
00:00:00.000 : en:00:00:00.000
00:09:26.149 : en:00:09:26.149
00:16:45.755 : en:00:16:45.755
00:24:45.651 : en:00:24:45.651
00:32:44.921 : en:00:32:44.921
00:40:31.179 : en:00:40:31.179
00:47:55.664 : en:00:47:55.664
00:57:52.469 : en:00:57:52.469
01:03:24.467 : en:01:03:24.467
01:10:31.727 : en:01:10:31.727
01:23:49.983 : en:01:23:49.983
01:27:39.504 : en:01:27:39.504

Постеры

Автор

Аватара пользователя
ayatosem
Релизер
Релизер
 
Раздал: 10.55 ГБ
Скачал: 5.8 ГБ
Ратио: 1.820
Сообщения: 2355
Зарегистрирован: 10 май 2010, 10:09
Репутация: 22


Торрент

Автор: ayatosem
Добавлен: 22 мар 2015, 07:14
Размер: 4.5 ГБ
Размер: 4 827 454 140 байт
Сидеров: 306
Личеров: 92
Скачали: 2
Здоровье: 100%
Раздающих: 100%
Статус: Проверен
Изменил: T E K (22 мар 2015, 07:15)
Скорость скачивания: 0 байт/сек
Скорость раздачи: 0 байт/сек
Последний сидер: 11 дней 18 часов 31 минуту 15 секунд назад
Последний личер: 11 дней 18 часов 31 минуту 15 секунд назад
Приватный: Нет (DHT включён)
BDRip Скачать торрент
Скачать торрент
[ Размер 11.78 КБ / Просмотров 14 ]


Вернуться в BDRip

Кто сейчас на конференции

Сейчас этот форум просматривают: нет зарегистрированных пользователей и гости: 1

Привет!

Привет, меня зовут Няша, я что-то типа ангела хранителя RipFunClub'а. Так как админ меня не дописал, я еще глупенькая, и ни чего не умею и между прочим мне за это очень стыдно =( К тому же мой вид меня смущает ='(

А пока я могу только предложить зарегистрироваться или залогинеться =)