Главная » ТрекерВидео (кино, ТВ)Художественное кинофильмы (Blu-Ray/BDRip/HD)BDRip
Версия для печати
Бессовестная реклама: на этой странице пока нет =)

Из машины / Ex Machina (2015) BDRip 1080p | Лицензия

В даном разделе все BDRip (720, 1080)
Правила форума

Сообщение

Из машины / Ex Machina (2015) BDRip 1080p | Лицензия

Сообщение ayatosem » 16 май 2015, 06:39

Название: Из машины
Оригинальное название: Ex Machina
Год выпуска: 2015
Жанр: Фантастика, драма
Выпущено: Великобритания, DNA Films, Film4
Режиссер: Алекс Гарленд
В ролях: Домналл Глисон, Кори Джонсон, Оскар Айзек, Алисия Викандер, Соноя Мизуно, Симара А. Темплмен, Тиффани Писани, Элина Алминас

О фильме: В центре сюжета - молодой человек, которого нанимает миллиардер, сделавший состояние на высокотехнологичных разработках. Задача работника - провести неделю в удаленном местечке, тестируя женщину-робота с искусственным интеллектом.

Качество: BDRip (1080p)
Видео: MPEG-4 AVC, 12400 Кбит/с, 1920x804, 23.976 кадр/с
Аудио: Русский (AC3, 6 ch, 448 Кбит/с), английский (DTS, 6 ch, 1509 Кбит/с)
Размер: 11.01 ГБ
Продолжительность: 01:48:01
Перевод: Дублированный [лицензия]
Субтитры: Русские, английские
Общее
Уникальный идентификатор : 181243049239034001890729490730091465950 (0x885A243E341AB3BB84A5E15E4452CCDE)
Полное имя : E:Ex.Machina.2015.1080p.BluRay.DTS.x264-HDAccess.mkv
Формат : Matroska
Версия формата : Version 4 / Version 2
Размер файла : 11,0 Гбайт
Продолжительность : 1 ч. 48 м.
Общий поток : 14,6 Мбит/сек
Дата кодирования : UTC 2015-05-15 12:59:23
Программа кодирования : mkvmerge v7.3.0 ('Nouages') 64bit built on Oct 22 2014 18:53:34
Библиотека кодирования : libebml v1.3.0 + libmatroska v1.4.1
_STATISTICS_WRITING_APP : mkvmerge v7.3.0 ('Nouages') 64bit built on Oct 22 2014 18:53:34
_STATISTICS_WRITING_DATE_UTC : 2015-05-15 12:59:23
_STATISTICS_TAGS : BPS DURATION NUMBER_OF_FRAMES NUMBER_OF_BYTES
DURATION : 01:41:45.777000000
NUMBER_OF_FRAMES : 1158
NUMBER_OF_BYTES : 49878
Видео
Идентификатор : 1
Формат : AVC
Формат/Информация : Advanced Video Codec
Профиль формата : High@L4.1
Параметр CABAC формата : Да
Параметр ReFrames формата : 5 кадров
Идентификатор кодека : V_MPEG4/ISO/AVC
Продолжительность : 1 ч. 48 м.
Битрейт : 12,4 Мбит/сек
Ширина : 1920 пикселей
Высота : 804 пикселя
Соотношение сторон : 2,40:1
Режим частоты кадров : Постоянный
Частота кадров : 23,976 кадра/сек
Цветовое пространство : YUV
Субдискретизация насыщенности : 4:2:0
Битовая глубина : 8 бит
Тип развёртки : Прогрессивная
Бит/(Пиксели*Кадры) : 0.334
Размер потока : 9,32 Гбайт (85%)
Библиотека кодирования : x264 core 146 r2538 121396c
Настройки программы : cabac=1 / ref=5 / deblock=1:-3:-3 / analyse=0x3:0x133 / me=umh / subme=10 / psy=1 / psy_rd=1.00:0.00 / mixed_ref=1 / me_range=48 / chroma_me=1 / trellis=2 / 8x8dct=1 / cqm=0 / deadzone=21,11 / fast_pskip=1 / chroma_qp_offset=-2 / threads=16 / lookahead_threads=2 / sliced_threads=0 / nr=0 / decimate=1 / interlaced=0 / bluray_compat=0 / constrained_intra=0 / bframes=8 / b_pyramid=2 / b_adapt=2 / b_bias=0 / direct=3 / weightb=1 / open_gop=0 / weightp=2 / keyint=250 / keyint_min=23 / scenecut=40 / intra_refresh=0 / rc_lookahead=150 / rc=crf / mbtree=0 / crf=17.0 / qcomp=0.65 / qpmin=0 / qpmax=69 / qpstep=4 / vbv_maxrate=50000 / vbv_bufsize=62500 / crf_max=0.0 / nal_hrd=none / filler=0 / ip_ratio=1.20 / pb_ratio=1.20 / aq=3:0.75
Язык : English
Default : Да
Forced : Нет
_STATISTICS_WRITING_APP : mkvmerge v7.3.0 ('Nouages') 64bit built on Oct 22 2014 18:53:34
_STATISTICS_WRITING_DATE_UTC : 2015-05-15 12:59:23
_STATISTICS_TAGS : BPS DURATION NUMBER_OF_FRAMES NUMBER_OF_BYTES
DURATION : 01:48:00.891000000
NUMBER_OF_FRAMES : 155386
NUMBER_OF_BYTES : 10239069615
Аудио #1
Идентификатор : 2
Формат : AC-3
Формат/Информация : Audio Coding 3
Расширение режима : CM (complete main)
Параметр Endianness формата : Big
Идентификатор кодека : A_AC3
Продолжительность : 1 ч. 48 м.
Вид битрейта : Постоянный
Битрейт : 448 Кбит/сек
Каналы : 6 каналов
Расположение каналов : Front: L C R, Side: L R, LFE
Частота : 48,0 КГц
Битовая глубина : 16 бит
Метод сжатия : С потерями
Размер потока : 346 Мбайт (3%)
Заголовок : DUB
Язык : Russian
Default : Да
Forced : Нет
Аудио #2
Идентификатор : 3
Формат : DTS
Формат/Информация : Digital Theater Systems
Режим : 16
Параметр Endianness формата : Big
Идентификатор кодека : A_DTS
Продолжительность : 1 ч. 48 м.
Вид битрейта : Постоянный
Битрейт : 1509 Кбит/сек
Каналы : 6 каналов
Расположение каналов : Front: L C R, Side: L R, LFE
Частота : 48,0 КГц
Битовая глубина : 24 бит
Метод сжатия : С потерями
Размер потока : 1,14 Гбайт (10%)
Язык : English
Default : Нет
Forced : Нет
Текст #1
Идентификатор : 4
Формат : UTF-8
Идентификатор кодека : S_TEXT/UTF8
Идентификатор кодека/Информация : UTF-8 Plain Text
Язык : Russian
Default : Нет
Forced : Нет
Текст #2
Идентификатор : 5
Формат : UTF-8
Идентификатор кодека : S_TEXT/UTF8
Идентификатор кодека/Информация : UTF-8 Plain Text
Язык : English
Default : Нет
Forced : Нет
Текст #3
Идентификатор : 6
Формат : UTF-8
Идентификатор кодека : S_TEXT/UTF8
Идентификатор кодека/Информация : UTF-8 Plain Text
Заголовок : SDH
Язык : English
Default : Нет
Forced : Нет
Меню
00:00:00.000 : en:00:00:00.000
00:04:34.941 : en:00:04:34.941
00:11:16.634 : en:00:11:16.634
00:15:08.157 : en:00:15:08.157
00:23:38.751 : en:00:23:38.751
00:31:57.999 : en:00:31:57.999
00:36:05.163 : en:00:36:05.163
00:40:26.758 : en:00:40:26.758
00:45:56.379 : en:00:45:56.379
00:53:28.956 : en:00:53:28.956
01:00:26.081 : en:01:00:26.081
01:04:01.254 : en:01:04:01.254
01:07:19.077 : en:01:07:19.077
01:13:22.023 : en:01:13:22.023
01:16:56.111 : en:01:16:56.111
01:21:36.517 : en:01:21:36.517
01:27:36.835 : en:01:27:36.835
01:32:54.152 : en:01:32:54.152
01:38:51.008 : en:01:38:51.008

Постеры

Автор

Аватара пользователя
ayatosem
Релизер
Релизер
 
Раздал: 10.55 ГБ
Скачал: 5.8 ГБ
Ратио: 1.820
Сообщения: 2355
Зарегистрирован: 10 май 2010, 10:09
Репутация: 22


Торрент

Автор: ayatosem
Добавлен: 16 май 2015, 06:39
Размер: 11.01 ГБ
Размер: 11 826 932 280 байт
Сидеров: 1190
Личеров: 650
Скачали: 0
Здоровье: 100%
Раздающих: 100%
Статус: Обновлён
Изменил: T E K (16 май 2015, 06:41)
Скорость скачивания: 0 байт/сек
Скорость раздачи: 0 байт/сек
Последний сидер: 11 дней 16 часов 18 минут 7 секунд назад
Последний личер: 11 дней 16 часов 18 минут 7 секунд назад
Приватный: Нет (DHT включён)
BDRip Скачать торрент
Скачать торрент
[ Размер 55.58 КБ / Просмотров 30 ]


Вернуться в BDRip

Кто сейчас на конференции

Сейчас этот форум просматривают: нет зарегистрированных пользователей и гости: 1

Привет!

Привет, меня зовут Няша, я что-то типа ангела хранителя RipFunClub'а. Так как админ меня не дописал, я еще глупенькая, и ни чего не умею и между прочим мне за это очень стыдно =( К тому же мой вид меня смущает ='(

А пока я могу только предложить зарегистрироваться или залогинеться =)