Главная » ТрекерВидео (кино, ТВ)Художественное кинофильмы (Blu-Ray/BDRip/HD)BDRip
Версия для печати
Бессовестная реклама: на этой странице пока нет =)

Kingsman: Секретная служба / Kingsman: The Secret Service (2014) BDRip 1080p | Лицензия

В даном разделе все BDRip (720, 1080)
Правила форума

Сообщение

Kingsman: Секретная служба / Kingsman: The Secret Service (2014) BDRip 1080p | Лицензия

Сообщение ayatosem » 01 июн 2015, 12:03

Название: Kingsman: Секретная служба
Оригинальное название: Kingsman: The Secret Service
Год выхода: 2014
Жанр: боевик, комедия, криминал, приключения
Режиссер: Мэттью Вон
В ролях: Тэрон Эджертон, Колин Фёрт, Сэмюэл Л. Джексон, Марк Стронг, Софи Куксон, Майкл Кейн, София Бутелла, Саманта Янус, Джофф Белл, Марк Хэмилл

О фильме: Эггси — молодой парень, который прошел службу в морской пехоте и имеет очень высокий уровень интеллекта. Он мог бы добиться многого, но выбрал другой путь и стал мелким преступником. Однажды он знакомится с Гарри Хартом, которому его отец когда-то спас жизнь. Этот человек решил сделать все возможное, чтобы сделать жизнь Эггси лучше и открыть для него новые возможности. Гарри рассказал ему, что является агентом секретной независимой организации, которая стоит на защите всего мира. Он предложил парню пройти обучение и стать новым членом их команды. Эггси принял предложение Харта, но сможет ли он справиться со всеми испытаниями и оправдать его надежды?

[Для просмотра изображения необходимо включить JavaScript]

Выпущено: 20th Century Fox
Продолжительность: 02:08:44
Перевод: Дублированный (лицензия) + украинский дублированный (лицензия)

Кодек: x264
Качество: BDRip (источник: Blu-ray Disc)
Видео: 1920x804 (2,40:1), 23.976 fps, 7300 kbps
Аудио #1: AC-3, 6 ch, 448 kbps (Rus)
Аудио #2: AC-3, 6 ch, 448 kbps (Ukr)
Аудио #3: AC-3, 6 ch, 448 kbps (Eng)
Субтитры: Русские (форс,полные), Украинские (форс,полные), Английские (форс,полные)
Скачать: сэмпл
General
Unique ID : 173800042238051387390909047767087479086 (0x82C0ABAA5B956DF7B465AF668A54792E)
Complete name : D:Kingsman.The.Secret.Service.2014.BDRip.1080p.Rus.Ukr.Eng.mkv
Format : Matroska
Format version : Version 2
File size : 7.77 GiB
Duration : 2h 8mn
Overall bit rate : 8 644 Kbps
Movie name : Kingsman: Секретная служба / Kingsman: The Secret Service (2014)
Encoded date : UTC 2015-05-31 18:38:15
Writing application : mkvmerge v5.8.0 ('No Sleep / Pillow') built on Sep 2 2012 15:37:04
Writing library : libebml v1.2.3 + libmatroska v1.3.0
Attachements : cover.png / logfile.log

Video
ID : 1
Format : AVC
Format/Info : Advanced Video Codec
Format profile : High@L4.1
Format settings, CABAC : Yes
Format settings, ReFrames : 5 frames
Codec ID : V_MPEG4/ISO/AVC
Duration : 2h 8mn
Bit rate : 7 300 Kbps
Width : 1 920 pixels
Height : 804 pixels
Display aspect ratio : 2.40:1
Frame rate mode : Constant
Frame rate : 23.976 fps
Color space : YUV
Chroma subsampling : 4:2:0
Bit depth : 8 bits
Scan type : Progressive
Bits/(Pixel*Frame) : 0.197
Stream size : 6.41 GiB (82%)
Title : Kingsman: Секретная служба / Kingsman: The Secret Service (2014)
Writing library : x264 core 146 r0+2586 e393126 t_mod_Custom [8-bit@all X86_64]
Encoding settings : cabac=1 / ref=5 / deblock=1:-3:-3 / analyse=0x3:0x133 / me=umh / subme=10 / psy=1 / fade_compensate=0.00 / psy_rd=1.05:0.00 / mixed_ref=1 / me_range=32 / chroma_me=1 / trellis=2 / 8x8dct=1 / cqm=0 / deadzone=21,11 / fast_pskip=0 / chroma_qp_offset=-2 / threads=12 / lookahead_threads=3 / sliced_threads=0 / nr=0 / decimate=1 / interlaced=0 / bluray_compat=0 / constrained_intra=0 / fgo=0 / bframes=10 / b_pyramid=2 / b_adapt=2 / b_bias=0 / direct=3 / weightb=1 / open_gop=0 / weightp=2 / keyint=240 / keyint_min=23 / scenecut=40 / intra_refresh=0 / rc=2pass / mbtree=0 / bitrate=7300 / ratetol=1.0 / qcomp=0.70 / qpmin=0:0:0 / qpmax=69:69:69 / qpstep=4 / cplxblur=20.0 / qblur=0.5 / ip_ratio=1.40 / pb_ratio=1.30 / aq=1:0.70 / aq-sensitivity=10.00 / aq-factor=1.00:1.00:1.00 / aq2=0 / aq3=0
Language : English
Default : Yes
Forced : No

Audio #1
ID : 2
Format : AC-3
Format/Info : Audio Coding 3
Mode extension : CM (complete main)
Format settings, Endianness : Big
Codec ID : A_AC3
Duration : 2h 8mn
Bit rate mode : Constant
Bit rate : 448 Kbps
Channel(s) : 6 channels
Channel positions : Front: L C R, Side: L R, LFE
Sampling rate : 48.0 KHz
Bit depth : 16 bits
Compression mode : Lossy
Stream size : 413 MiB (5%)
Title : Дубляж, Blu-ray EUR
Language : Russian
Default : Yes
Forced : No

Audio #2
ID : 3
Format : AC-3
Format/Info : Audio Coding 3
Mode extension : CM (complete main)
Format settings, Endianness : Big
Codec ID : A_AC3
Duration : 2h 8mn
Bit rate mode : Constant
Bit rate : 448 Kbps
Channel(s) : 6 channels
Channel positions : Front: L C R, Side: L R, LFE
Sampling rate : 48.0 KHz
Bit depth : 16 bits
Compression mode : Lossy
Stream size : 413 MiB (5%)
Title : Дубляж, Blu-ray EUR
Language : Ukrainian
Default : No
Forced : No

Audio #3
ID : 4
Format : AC-3
Format/Info : Audio Coding 3
Mode extension : CM (complete main)
Format settings, Endianness : Big
Codec ID : A_AC3
Duration : 2h 8mn
Bit rate mode : Constant
Bit rate : 448 Kbps
Channel(s) : 6 channels
Channel positions : Front: L C R, Side: L R, LFE
Sampling rate : 48.0 KHz
Bit depth : 16 bits
Compression mode : Lossy
Stream size : 413 MiB (5%)
Title : English
Language : English
Default : No
Forced : No

Text #1
ID : 5
Format : UTF-8
Codec ID : S_TEXT/UTF8
Codec ID/Info : UTF-8 Plain Text
Title : Russian (Forced)
Language : Russian
Default : Yes
Forced : No

Text #2
ID : 6
Format : UTF-8
Codec ID : S_TEXT/UTF8
Codec ID/Info : UTF-8 Plain Text
Title : Russian
Language : Russian
Default : No
Forced : No

Text #3
ID : 7
Format : UTF-8
Codec ID : S_TEXT/UTF8
Codec ID/Info : UTF-8 Plain Text
Title : Ukrainian (Forced)
Language : Ukrainian
Default : No
Forced : No

Text #4
ID : 8
Format : UTF-8
Codec ID : S_TEXT/UTF8
Codec ID/Info : UTF-8 Plain Text
Title : Ukrainian
Language : Ukrainian
Default : No
Forced : No

Text #5
ID : 9
Format : UTF-8
Codec ID : S_TEXT/UTF8
Codec ID/Info : UTF-8 Plain Text
Title : English (Forced)
Language : English
Default : No
Forced : No

Text #6
ID : 10
Format : UTF-8
Codec ID : S_TEXT/UTF8
Codec ID/Info : UTF-8 Plain Text
Title : English
Language : English
Default : No
Forced : No

Text #7
ID : 11
Format : UTF-8
Codec ID : S_TEXT/UTF8
Codec ID/Info : UTF-8 Plain Text
Title : English (SDH)
Language : English
Default : No
Forced : No

Text #8
ID : 12
Format : UTF-8
Codec ID : S_TEXT/UTF8
Codec ID/Info : UTF-8 Plain Text
Title : English (SDH Colored)
Language : English
Default : No
Forced : No

Menu
00:00:00.000 : :Chapter 01
00:02:55.466 : :Chapter 02
00:04:50.665 : :Chapter 03
00:08:34.180 : :Chapter 04
00:11:49.875 : :Chapter 05
00:13:04.575 : :Chapter 06
00:15:57.998 : :Chapter 07
00:18:25.979 : :Chapter 08
00:23:48.051 : :Chapter 09
00:25:37.327 : :Chapter 10
00:29:53.750 : :Chapter 11
00:32:25.276 : :Chapter 12
00:33:47.900 : :Chapter 13
00:37:01.469 : :Chapter 14
00:38:49.618 : :Chapter 15
00:42:46.021 : :Chapter 16
00:45:03.867 : :Chapter 17
00:47:42.276 : :Chapter 18
00:53:47.557 : :Chapter 19
00:57:28.194 : :Chapter 20
01:03:29.514 : :Chapter 21
01:05:21.876 : :Chapter 22
01:10:27.932 : :Chapter 23
01:13:10.219 : :Chapter 24
01:15:01.955 : :Chapter 25
01:16:58.196 : :Chapter 26
01:23:03.812 : :Chapter 27
01:25:57.402 : :Chapter 28
01:31:21.309 : :Chapter 29
01:34:38.798 : :Chapter 30
01:36:27.948 : :Chapter 31
01:39:59.994 : :Chapter 32
01:44:07.866 : :Chapter 33
01:50:31.082 : :Chapter 34
01:58:21.219 : :Chapter 35
01:59:38.462 : :Chapter 36
x264 [info]: frame I:1821 Avg QP:13.70 size:229900
x264 [info]: frame P:49203 Avg QP:16.54 size: 72199
x264 [info]: frame B:134171 Avg QP:18.28 size: 22901
x264 [info]: consecutive B-frames: 6.4% 6.1% 14.1% 11.4% 16.3% 36.1% 5.7% 1.1% 1.1% 0.7% 0.9%

Постеры

Автор

Аватара пользователя
ayatosem
Релизер
Релизер
 
Раздал: 10.55 ГБ
Скачал: 5.8 ГБ
Ратио: 1.820
Сообщения: 2355
Зарегистрирован: 10 май 2010, 10:09
Репутация: 22


Торрент

Автор: ayatosem
Добавлен: 01 июн 2015, 12:03
Размер: 7.77 ГБ
Размер: 8 345 927 371 байт
Сидеров: 1814
Личеров: 434
Скачали: 2
Здоровье: 100%
Раздающих: 100%
Статус: Проверен
Изменил: T E K (01 июн 2015, 12:08)
Скорость скачивания: 0 байт/сек
Скорость раздачи: 0 байт/сек
Последний сидер: 1 месяц 2 дня 14 часов 52 минуты 53 секунды назад
Последний личер: 1 месяц 2 дня 14 часов 52 минуты 53 секунды назад
Приватный: Нет (DHT включён)
BDRip Скачать торрент
Скачать торрент
[ Размер 39.45 КБ / Просмотров 11 ]


Вернуться в BDRip

Кто сейчас на конференции

Сейчас этот форум просматривают: нет зарегистрированных пользователей и гости: 1

Привет!

Привет, меня зовут Няша, я что-то типа ангела хранителя RipFunClub'а. Так как админ меня не дописал, я еще глупенькая, и ни чего не умею и между прочим мне за это очень стыдно =( К тому же мой вид меня смущает ='(

А пока я могу только предложить зарегистрироваться или залогинеться =)