Главная » ТрекерВидео (кино, ТВ)Художественное киноЗарубежное Кино(Rips)Мистика
Версия для печати
Бессовестная реклама: на этой странице пока нет =)

Константин: повелитель тьмы / Constantine (2005) HDRip

Правила форума

Сообщение

Константин: повелитель тьмы / Constantine (2005) HDRip

Сообщение tukat » 02 июл 2011, 18:09

Название: Константин: повелитель тьмы
Оригинальное название: Constantine
Год выхода: 2005
Жанр: Боевик, Мистика, Триллер
Перевод: Русский дублированный перевод
Режиссер: Фрэнсис Лоуренс / Francis Lawrence/
В ролях: Киану Ривз / Keanu Reeves/, Рэйчел Вайс /Rachel Weisz/, Шиа ЛаБеуф /Shia LaBeouf/, Джимон Хонсу /Djimon Hounsou/, Макс Бейкер /Max Baker/, Прюитт Тейлор Винс /Pruitt Taylor Vince/

О фильме:
Действие фильма разворачивается в Лос-Анжелесе, где распались все духовные связи и бесчинствуют силы ада. Константин вооружен ружьем, сделанным из распятия, а помогает ему бесстрашная женщина-полицейский (Рэчел Вейсц). Константин - это духовный воин, отправившийся на апокалиптическую войну. Радуйтесь, что он сражается на вашей стороне.
Выпущено: Warner Bros.
Примечание: Фильм - полный, т.е. с финальной сценой после титров.
Выпущено: Warner Bros.
Продолжительность: 02:00:47 min
Формат: AVI
Качество: HDRip
Видео: XviD, MPEG-4 codec , 720x304, 2196 kbps, 23.976 fps, 0.42 bit/pixel
Аудио: AC3 Dolby Digital, 384.00 kbps, 6 Ch

Постеры

Скриншоты

Автор

Аватара пользователя
tukat
Супераплоадеры
Супераплоадеры
 
Раздал: 999.61 МБ
Скачал: 4.91 ГБ
Ратио: 0.199
Сообщения: 2437
Зарегистрирован: 24 мар 2010, 14:33
Репутация: 28


Торрент

Автор: tukat
Добавлен: 02 июл 2011, 18:07
Размер: 2.18 ГБ
Размер: 2 343 854 080 байт
Сидеров: 0
Личеров: 1
Скачали: 0
Здоровье: ???%
Статус: Проверен
Изменил: tmoon (02 июл 2011, 18:14)
Скорость скачивания: 0 байт/сек
Скорость раздачи: 0 байт/сек
Последний сидер: 4 года 7 месяцев 13 дней 2 часа 45 минут 53 секунды назад
Последний личер: 9 месяцев 9 дней 22 часа 44 минуты 19 секунд назад
Приватный: Нет (DHT включён)
Мистика Скачать торрент
Скачать торрент
[ Размер 11.35 КБ / Просмотров 10 ]


Re: Константин: повелитель тьмы / Constantine (2005) HDRip

Сообщение T E K » 02 июл 2011, 18:15

качну фильмец
Аватара пользователя
T E K
Администратор
Администратор
 
Раздал: 4.33 ТБ
Скачал: 3.22 ТБ
Ратио: 1.344
Сообщения: 1682
Зарегистрирован: 20 фев 2010, 08:37
Репутация: 197

Re: Константин: повелитель тьмы / Constantine (2005) HDRip

Сообщение Петрович » 02 июл 2011, 18:47

Когда будем оформлять хотя бы примерно по шаблону? Или кому как вздумается или заблагорассудится?
Петрович
 

Re: Константин: повелитель тьмы / Constantine (2005) HDRip

Сообщение tmoon » 02 июл 2011, 19:08

Я переделал, хотя честно, не вижу проблем в таком оформлении. Все необходимые компоненты указаны.
КОГДА ТЫ РОДИЛСЯ! - ты плакал, а мир улыбался!!! Так проживи жизнь так, чтоб ты умирая улыбался, а мир плакал!!!
[Для просмотра изображения необходимо включить JavaScript]
Аватара пользователя
tmoon
 
Раздал: 863.96 ГБ
Скачал: 849.74 ГБ
Ратио: 1.017
Сообщения: 629
Зарегистрирован: 09 июн 2011, 13:21
Репутация: 0

Re: Константин: повелитель тьмы / Constantine (2005) HDRip

Сообщение T E K » 02 июл 2011, 20:45

tmoon писал(а):

Я переделал, хотя честно, не вижу проблем в таком оформлении. Все необходимые компоненты указаны.


нормально было сразу, смысл был переделывать??
Аватара пользователя
T E K
Администратор
Администратор
 
Раздал: 4.33 ТБ
Скачал: 3.22 ТБ
Ратио: 1.344
Сообщения: 1682
Зарегистрирован: 20 фев 2010, 08:37
Репутация: 197

Re: Константин: повелитель тьмы / Constantine (2005) HDRip

Сообщение Петрович » 03 июл 2011, 14:15

Так Дак так. Я возражать не буду, но мнение я своё высказал.
Петрович
 

Re: Константин: повелитель тьмы / Constantine (2005) HDRip

Сообщение T E K » 03 июл 2011, 14:20

Петрович писал(а):

Так Дак так. Я возражать не буду, но мнение я своё высказал.


там вроде были тех данные под спойлером??? или я не ошибаюсь??

если под спойлером то да надо по шаблону делать
Аватара пользователя
T E K
Администратор
Администратор
 
Раздал: 4.33 ТБ
Скачал: 3.22 ТБ
Ратио: 1.344
Сообщения: 1682
Зарегистрирован: 20 фев 2010, 08:37
Репутация: 197

Re: Константин: повелитель тьмы / Constantine (2005) HDRip

Сообщение Петрович » 03 июл 2011, 16:53

Они были примерно таковыми
C:\файлы тор\холодное лето.avi

Format : AVI
Format/Info : Audio Video Interleave
File size : 1.36 GiB
Duration : 1h 36mn
Overall bit rate : 2 033 Kbps
Writing application : VirtualDubMod 1.5.10.1 (build 2439/release)
Writing library : VirtualDubMod build 2439/release
Video
Format : MPEG-4 Visual
Format profile : Simple@L3
Format settings, BVOP : Yes
Format settings, QPel : No
Format settings, GMC : No warppoints
Format settings, Matrix : Default
Codec ID : DX50
Codec ID/Hint : DivX 5
Duration : 1h 36mn
Bit rate : 1 575 Kbps
Width : 544 pixels
Height : 400 pixels
Display aspect ratio : 4/3
Frame rate : 25.000 fps
Resolution : 24 bits
Colorimetry : 4:2:0
Scan type : Progressive
Bits/(Pixel*Frame) : 0.290
Stream size : 1.06 GiB (77%)
Writing library : XviD 1.1.0 Beta2 (UTC 2005-04-04)
Audio
Format : AC-3
Format/Info : Audio Coding 3
Codec ID : 2000
Duration : 1h 36mn
Bit rate mode : Constant
Bit rate : 448 Kbps
Channel(s) : 6 channels
Channel positions : Front: L C R, Surround: L R, LFE
Sampling rate : 48.0 KHz
Stream size : 308 MiB (22%)

Ну немножко покороче может быть, но в таком виде. Информация конечно о файле исчерпывающая, но мало кому она нужна, а ещё меньше тех кто в ней сможет полностью разобраться или попросту правильно прочесть и воспринять.
Я не допускал раньше такого оформления.
Петрович
 


Вернуться в Мистика

Кто сейчас на конференции

Сейчас этот форум просматривают: нет зарегистрированных пользователей и гости: 0

Привет!

Привет, меня зовут Няша, я что-то типа ангела хранителя RipFunClub'а. Так как админ меня не дописал, я еще глупенькая, и ни чего не умею и между прочим мне за это очень стыдно =( К тому же мой вид меня смущает ='(

А пока я могу только предложить зарегистрироваться или залогинеться =)