Главная » ТрекерВидео (кино, ТВ)Художественное кинофильмы (Blu-Ray/BDRip/HD)BDRip
Версия для печати
Бессовестная реклама: на этой странице пока нет =)

База "Клейтон" / Basic (2003) BDRip 720p

В даном разделе все BDRip (720, 1080)
Правила форума

Сообщение

База "Клейтон" / Basic (2003) BDRip 720p

Сообщение Freeman » 25 мар 2012, 16:09

Название: База "Клейтон"
Оригинальное название: Basic
Год выхода: 2003
Жанр: Триллер, драма, детектив
Режиссер: Джон МакТирнан / John McTiernan
В ролях: Джон Траволта, Сэмюэл Л. Джексон, Конни Нилсен, Тимоти Дэйли, Джованни Рибизи, Брайан Ван Холт, Тэй Диггз, Дэш Майхок, Кристиан де ла Фуэнте, Розелин Санчес

О фильме:
Форт «Клейтон» — последняя американская военная база на Панамском канале. Во время секретной тренировочной миссии ураган настигает в джунглях группу спецназовцев и их легендарного инструктора Нэйтана Веста. Противоречивые показания двух вернувшихся на базу солдат ещё больше запутывают дело. Для расследования обстоятельств мистического исчезновения отряда приглашают агента отдела по борьбе с наркотиками Харди. Те, кто уцелел, не могут объяснить — в наркотиках ли дело… Или в чем-то другом. Все лгут…

[Для просмотра изображения необходимо включить JavaScript]
Страна: США. Германия
Продолжительность: 01:38:36
Перевод: Профессиональный (многоголосый, закадровый)
Полное дублирование


Кодек: H.264
Качество: BDRip 720p
Видео: 1280x532p, 23,976 fps, ~4207 kbps
Звук:
Аудио 1: Russian (AC3, 5.1, 448 kbps / 48 kHz) (Многоголосый, закадровый)
Аудио 2: Russian (AC3, 2.0, 192 kbps / 48 kHz) (Полное дублирование)
Аудио 3: English (DTS 6.1-ES / 48 kHz / 1509 kbps / 16-bit)
Субтитры: русские, английские

Формат: Matroska
Размер файла: 4,36 Гбайт
Продолжительность: 1 ч. 38 м.
Общий поток: 6355 Кбит/сек
Дата кодирования: UTC 2011-01-03 14:32:09
Программа кодирования: mkvmerge v3.4.0 ('Rapunzel') сборка от May 15 2010 09:38:20
Библиотека кодирования: libebml v0.8.0 + libmatroska v0.9.0
Видео
Идентификатор: 1
Формат: AVC
Формат/Информация: Advanced Video Codec
Профиль формата: High@L4.1
Параметр CABAC формата: Да
Параметр ReFrames формата: 11 кадры
Идентификатор кодека: V_MPEG4/ISO/AVC
Продолжительность: 1 ч. 38 м.
Битрейт: 4207 Кбит/сек
Ширина: 1280 пикс.
Высота: 532 пикс.
Соотношение сторон: 2,40:1
Частота кадров: 23,976 кадр/сек
Цветовое пространство: YUV
Подвыборка цветности: 4:2:0
Битовая глубина: 8 бит
Тип развёртки: Прогрессивная
Бит/(Пиксели*Кадры): 0.258
Размер потока: 2,80 Гбайт (64%)
Библиотека кодирования: x264 core 110 r1820 fdcf2ae
Настройки программы: cabac=1 / ref=11 / deblock=1:-3:-3 / analyse=0x3:0x113 / me=umh / subme=10 / psy=1 / psy_rd=1.00:0.00 / mixed_ref=1 / me_range=32 / chroma_me=1 / trellis=2 / 8x8dct=1 / cqm=0 / deadzone=21,11 / fast_pskip=0 / chroma_qp_offset=-2 / threads=6 / sliced_threads=0 / nr=0 / decimate=1 / interlaced=0 / constrained_intra=0 / bframes=6 / b_pyramid=2 / b_adapt=2 / b_bias=0 / direct=3 / weightb=1 / open_gop=0 / weightp=2 / keyint=250 / keyint_min=23 / scenecut=40 / intra_refresh=0 / rc_lookahead=40 / rc=2pass / mbtree=0 / bitrate=4207 / ratetol=1.0 / qcomp=0.60 / qpmin=10 / qpmax=51 / qpstep=4 / cplxblur=20.0 / qblur=0.5 / vbv_maxrate=50000 / vbv_bufsize=62500 / ip_ratio=1.40 / pb_ratio=1.30 / aq=1:1.00 / nal_hrd=none
Аудио #1
Идентификатор: 2
Формат: AC-3
Формат/Информация: Audio Coding 3
Расширение режима: CM (complete main)
Идентификатор кодека: A_AC3
Продолжительность: 1 ч. 38 м.
Вид битрейта: Постоянный
Битрейт: 448 Кбит/сек
Канал(ы): 6 канала(ов)
Расположение каналов: Front: L C R, Side: L R, LFE
Частота: 48,0 КГц
Битовая глубина: 16 бит
Метод сжатия: С потерями
Размер потока: 315 Мбайт (7%)
Заголовок: MVO, AC3 5.1, 448 kbps
Язык: Russian
Аудио #2
Идентификатор: 3
Формат: AC-3
Формат/Информация: Audio Coding 3
Расширение режима: CM (complete main)
Идентификатор кодека: A_AC3
Продолжительность: 1 ч. 38 м.
Вид битрейта: Постоянный
Битрейт: 192 Кбит/сек
Канал(ы): 2 канала(ов)
Расположение каналов: Front: L R
Частота: 48,0 КГц
Битовая глубина: 16 бит
Метод сжатия: С потерями
Размер потока: 135 Мбайт (3%)
Заголовок: DUB, 2.0, 192 kbps
Язык: Russian
Аудио #3
Идентификатор: 4
Формат: DTS
Формат/Информация: Digital Theater Systems
Профиль формата: ES
Идентификатор кодека: A_DTS
Продолжительность: 1 ч. 38 м.
Вид битрейта: Постоянный
Битрейт: 1510 Кбит/сек
Канал(ы): 7 канала(ов) / 6 канала(ов)
Расположение каналов: Front: L C R, Side: L R, Back: C, LFE / Front: L C R, Side: L R, LFE
Частота: 48,0 КГц
Битовая глубина: 24 бит
Метод сжатия: С потерями
Размер потока: 1,04 Гбайт (24%)
Язык: English
Текст #1
Идентификатор: 5
Формат: UTF-8
Идентификатор кодека: S_TEXT/UTF8
Идентификатор кодека/Информация: UTF-8 Plain Text
Язык: Russian
Текст #2
Идентификатор: 6
Формат: UTF-8
Идентификатор кодека: S_TEXT/UTF8
Идентификатор кодека/Информация: UTF-8 Plain Text
Язык: English



[Для просмотра изображения необходимо включить JavaScript][Для просмотра изображения необходимо включить JavaScript][Для просмотра изображения необходимо включить JavaScript]

Постеры

Автор

Freeman
 


Торрент

Автор: Freeman
Добавлен: 25 мар 2012, 16:09
Размер: 4.36 ГБ
Размер: 4 680 830 277 байт
Сидеров: 0
Личеров: 2
Скачали: 1
Здоровье: ???%
Статус: Проверен
Изменил: T E K (25 мар 2012, 16:13)
Скорость скачивания: 0 байт/сек
Скорость раздачи: 0 байт/сек
Последний сидер: 7 лет 2 месяца 22 дня 5 часов 55 минут 33 секунды назад
Последний личер: 6 месяцев 28 дней 23 часа 7 минут 37 секунд назад
Приватный: Нет (DHT включён)
BDRip Скачать торрент
Скачать торрент
[ Размер 22.19 КБ / Просмотров 2 ]


Вернуться в BDRip

Кто сейчас на конференции

Сейчас этот форум просматривают: нет зарегистрированных пользователей и гости: 2

Привет!

Привет, меня зовут Няша, я что-то типа ангела хранителя RipFunClub'а. Так как админ меня не дописал, я еще глупенькая, и ни чего не умею и между прочим мне за это очень стыдно =( К тому же мой вид меня смущает ='(

А пока я могу только предложить зарегистрироваться или залогинеться =)