Главная » ТрекерВидео (кино, ТВ)Художественное кинофильмы (Blu-Ray/BDRip/HD)BDRip
Версия для печати
Бессовестная реклама: на этой странице пока нет =)

Газонокосильщик / The Lawnmower Man (1992) BDRip-AVC

В даном разделе все BDRip (720, 1080)
Правила форума

Сообщение

Газонокосильщик / The Lawnmower Man (1992) BDRip-AVC

Сообщение Петрович » 29 мар 2012, 15:52

Страна: США, Япония
Жанр: ужасы, фантастика
Год выпуска: 1992
Продолжительность: 01:43:53-[/font]
Перевод: Профессиональный (многолосый закадровый)
Авторский (одноголосый закадровый) (Ю.Живов)
Cубтитры: нет-
Режиссер: Бретт Леонард / Brett Leonard
В ролях: Джефф Фэйи /Jeff Fahey/, Пирс Броснан /Pierce Brosnan/, Дженни Райт /Jenny Wright/, Марк Бринглсон /Mark Bringelson/, Джеффри Льюис /Geoffrey Lewis/, Джереми Слэйт /Jeremy Slate/, Дин Норрис /Dean Norris/

Описание: Ученому Бенджамину Трэйсу (Броснан) нужны подопытные для до сих пор неудачных экспериментов с новыми препаратами в комбинации с применением компьютеров, и выбирает он для этого умственно неполноценного, вечно ухмыляющегося газонокосильщика. В результате кретин (Фэйхи в парике блондина) становится гением-психопатом, но заканчивается все взрывами и погибелью. Картина поставлена по рассказу Стивена Кинга 1975 года и в зрительном плане впечатляет, благодаря хорошей пиротехнике и визуальным эффектам, имитирующим виртуальную реальность.

Качество видео: BDRip-AVC
Формат видео: MKV-
Видео: 1022x554, 23,976 кадр/сек, 2233, Кбит/сек, 0.158 bit/pixel
Аудио: AC-3, 384 Кбит/сек, 6 каналов, 48,0 КГц | [color=red]MVO

Аудио: AC-3, 192 Кбит/сек, 2 каналa, 48,0 КГц | AVO
Аудио: AC-3, 192 Кбит/сек, 2 каналa, 48,0 КГц | ENG

Общее
Уникальный идентификатор         : 254237352218670775972061824027370584967 (0xBF44553CFED3F12AB7382EC78A11FB87)
Полное имя                       : E:\ФИЛЬМЫ\The Lawnmower Man.1992.BDRip-AVC.PT.mkv
Формат                           : Matroska
Версия формата                   : Version 2
Размер файла                     : 2,18 Гбайт
Продолжительность                : 1 ч. 43 м.
Общий поток                      : 3000 Кбит/сек
Название фильма                  : Газонокосильщик / The Lawnmower Man (1992) BDRip-AVC rip by rulya74
Дата кодирования                 : UTC 2012-03-23 18:12:38
Программа кодирования            : mkvmerge v5.2.1 ('A Far Off Place') built on Jan  2 2012 23:21:10
Библиотека кодирования           : libebml v1.2.3 + libmatroska v1.3.0
Видео
Идентификатор                    : 1
Формат                           : AVC
Формат/Информация                : Advanced Video Codec
Профиль формата                  : High@L4.1
Параметр CABAC формата           : Да
Параметр ReFrames формата        : 12 кадров
Идентификатор кодека             : V_MPEG4/ISO/AVC
Продолжительность                : 1 ч. 43 м.
Битрейт                          : 2233 Кбит/сек
Ширина                           : 1022 пикселя
Высота                           : 554 пикселя
Соотношение сторон               : 16:9
Частота кадров                   : 25,000 кадров/сек
Цветовое пространство            : YUV
Субдискретизация насыщенности    : 4:2:0
Битовая глубина                  : 8 бит
Тип развёртки                    : Прогрессивная
Бит/(Пиксели*Кадры)              : 0.158
Размер потока                    : 1,58 Гбайт (72%)
Библиотека кодирования           : x264 core 120 r2164 da19765
Настройки программы              : cabac=1 / ref=12 / deblock=1:-3:-2 / analyse=0x3:0x113 / me=umh / subme=9 / psy=1 / psy_rd=1.00:0.00 / mixed_ref=1 / me_range=48 / chroma_me=1 / trellis=2 / 8x8dct=1 / cqm=0 / deadzone=21,11 / fast_pskip=1 / chroma_qp_offset=-2 / threads=4 / sliced_threads=0 / nr=0 / decimate=1 / interlaced=0 / bluray_compat=0 / constrained_intra=0 / bframes=10 / b_pyramid=2 / b_adapt=1 / b_bias=0 / direct=3 / weightb=1 / open_gop=0 / weightp=2 / keyint=250 / keyint_min=23 / scenecut=40 / intra_refresh=0 / rc=2pass / mbtree=0 / bitrate=2233 / ratetol=1.0 / qcomp=0.60 / qpmin=10 / qpmax=51 / qpstep=4 / cplxblur=20.0 / qblur=0.5 / ip_ratio=1.40 / pb_ratio=1.30 / aq=1:1.00
Default                          : Да
Forced                           : Нет
Аудио #1
Идентификатор                    : 2
Формат                           : AC-3
Формат/Информация                : Audio Coding 3
Расширение режима                : CM (complete main)
Идентификатор кодека             : A_AC3
Продолжительность                : 1 ч. 43 м.
Вид битрейта                     : Постоянный
Битрейт                          : 384 Кбит/сек
Каналы                           : 6 каналов
Расположение каналов             : Front: L C R, Side: L R, LFE
Частота                          : 48,0 КГц
Битовая глубина                  : 16 бит
Метод сжатия                     : С потерями
Размер потока                    : 285 Мбайт (13%)
Заголовок                        : Многоголосый закадровый (Инис)
Язык                             : Russian
Default                          : Да
Forced                           : Нет
Аудио #2
Идентификатор                    : 3
Формат                           : AC-3
Формат/Информация                : Audio Coding 3
Расширение режима                : CM (complete main)
Идентификатор кодека             : A_AC3
Продолжительность                : 1 ч. 43 м.
Вид битрейта                     : Постоянный
Битрейт                          : 192 Кбит/сек
Каналы                           : 2 канала
Расположение каналов             : Front: L R
Частота                          : 48,0 КГц
Битовая глубина                  : 16 бит
Метод сжатия                     : С потерями
Размер потока                    : 143 Мбайт (6%)
Заголовок                        : Одноголосый (Ю. Живов)
Язык                             : Russian
Default                          : Нет
Forced                           : Нет
Аудио #3
Идентификатор                    : 4
Формат                           : AC-3
Формат/Информация                : Audio Coding 3
Расширение режима                : CM (complete main)
Идентификатор кодека             : A_AC3
Продолжительность                : 1 ч. 43 м.
Вид битрейта                     : Постоянный
Битрейт                          : 192 Кбит/сек
Каналы                           : 2 канала
Расположение каналов             : Front: L R
Частота                          : 48,0 КГц
Битовая глубина                  : 16 бит
Метод сжатия                     : С потерями
Размер потока                    : 143 Мбайт (6%)
Заголовок                        : Оригинал
Язык                             : English
Default                          : Нет
Forced                           : Нет
[Для просмотра изображения необходимо включить JavaScript][Для просмотра изображения необходимо включить JavaScript][Для просмотра изображения необходимо включить JavaScript][Для просмотра изображения необходимо включить JavaScript][Для просмотра изображения необходимо включить JavaScript][Для просмотра изображения необходимо включить JavaScript]

Постеры

Автор

Петрович
 


Торрент

Автор: Петрович
Добавлен: 29 мар 2012, 15:52
Размер: 2.18 ГБ
Размер: 2 337 461 098 байт
Сидеров: 9
Личеров: 4
Скачали: 2
Здоровье: 100%
Раздающих: 100%
Статус: Проверен
Изменил: T E K (29 мар 2012, 16:12)
Скорость скачивания: 0 байт/сек
Скорость раздачи: 0 байт/сек
Последний сидер: 4 месяца 22 дня 3 часа 41 минуту 11 секунд назад
Последний личер: 4 месяца 22 дня 3 часа 41 минуту 11 секунд назад
Приватный: Нет (DHT включён)
BDRip Скачать торрент
Скачать торрент
[ Размер 11.44 КБ / Просмотров 4 ]


Вернуться в BDRip

Кто сейчас на конференции

Сейчас этот форум просматривают: нет зарегистрированных пользователей и гости: 1

Привет!

Привет, меня зовут Няша, я что-то типа ангела хранителя RipFunClub'а. Так как админ меня не дописал, я еще глупенькая, и ни чего не умею и между прочим мне за это очень стыдно =( К тому же мой вид меня смущает ='(

А пока я могу только предложить зарегистрироваться или залогинеться =)